Ссылка на приватное зеркало нашего сайта всего за 1$. Внимание количество ограничено!!!

2 сезон

iTunes

1 сезон

1

2 сезон

2 сезон

iTunes

1 сезон

RePack

30

Ultimate

ВАЖНО

ИГРА 18+

pack

RePack

MK11
pack

Забери бонус

RePack

jed

!!Акция!!

Alien_Rage

RePack

fifa19

RePack

Assassins Creed: Odyssey

RePack

NEED FOR SPEED™ PAYBACK

4 сезон

9 сезон

Бесстыжие 9 сезон

Все сериалы

все сериалы на PB.wtf

RePack

FAR CRY 5
  

Теория большого взрыва / The Big Bang Theory / Сезон: 8 / Серии: 1-12 из 24 (Чак Лорри) [2014, комедия, WEB-DL 720p] DVO (DekinStudio) + Original + Sub Rus + Sub Eng piratbit.pw

Теория большого взрыва через торрент piratbit.pw

Размер: 7.57 GB | Добавлен: 5 лет 10 мес. назад | Торрент скачан:34 раза
Скачать  

13-01-2015 07:44 Теория большого взрыва Скачать торрент  

Теория большого взрыва / The Big Bang Theory
Год выпуска: 2014
Страна: США
Продолжительность: ~ 00:22:00
Перевод: Профессиональный двухголосый
Субтитры: русские, английские

Режиссер: Чак Лорри



В ролях: Джонни Галэки, Джим Парсонс, Кейли Куоко, Саймон Хелберг, Кунал Найяр, Мелисса Ройч, Маим Бялик, Сара Гилберт и др.

Описание: Теория большого взрыва – популярная ситуационная комедия о жизни молодых ученых-физиков. Сюжет строится на событиях, которые происходят с соседями по квартире физиком-экспериментатором Леонардом, гением Шелдоном, суммарный IQ которых более 360 баллов и их чудаковатыми друзьями Говардом и Раджешем. Герои сериала считают себя "великими умами" и отлично знают все физические законы, но это не помогает им в общении с людьми.

Качество: WEB-DLRip 720p
Формат: MKV
Видео кодек: AVC
Аудио кодек: AC3
Видео: 1280x718 (16:9), 23.976 fps, 4 034 Kbps (0.183 bit/pixel)
Аудио#1: 48.0 KHz, 2 ch, 192 Kbps, CBR (Russian)
Аудио#2: 48.0 KHz, 2 ch, 192 Kbps, CBR (English)
Релиз от: скриншот  
Над релизом работали
Перевод: Александр Артемов
Закадровый текст читали: Григорий Декин и Надежда Марьина
Работа со звуком: Степан Барсамов, Григорий Декин
Работа с видео: Александр Артемов
Перевод и исполнение заглавной песни: Вячеслав Назаровъ
Внимание! Раздача ведётся путём добавления новых серий; при каждом добавлении создаётся новый торрент. Чтобы начать докачку новой серии, пользователям необходимо сделать следующее:
(1) остановить скачивание,
(2) удалить старый торрент-файл у себя из клиента (старые серии удалять не надо),
(3) скачать новый торрент-файл из раздачи и запустить его у себя в клиенте вместо старого, при этом указать клиенту путь в старую папку, куда и должно происходить скачивание новых серий.
Ваш клиент при этом должен произвести хеширование (проверку) старой папки (если не производит сам - помогите ему сделать это), и будет докачивать только те серии, которых у Вас ещё нет. Старые серии при этом не удаляются, а продолжают раздаваться!
Eсли Вы уже посмотрели и удалили старые серии, то предотвратить повторную закачку старых серий можно, сняв галочки в соответсвующих местах при запуске нового торрента. По возможности, желательно не удалять старые серии как можно дольше чтобы релизёр не столько продолжал раздавать старые серии, сколько сконцентрироваться на новых.
скриншот   скриншот   скриншот   скриншот   скриншот   скриншот  

General
Unique ID : 229036953679890266748954275390477140656 (0xAC4EE9A9BE630E90B37B005D1FB982B0)
Complete name : D:\НБФ\19456\The.Big.Bang.Theory.S08.WEB-DL.720p.Rus.Eng-Dekin.Studio\The.Big.Bang.Theory.S08E03.WEB-DL.720p.Rus.Eng-Dekin.Studio.mkv
Format : Matroska
Format version : Version 4 / Version 2
File size : 648 MiB
Duration : 19mn 47s
Overall bit rate : 4 576 Kbps
Encoded date : UTC 2014-10-01 20:55:38
Writing application : mkvmerge v7.1.0 ('Good Love') 32bit built on Jul 27 2014 12:59:18
Writing library : libebml v1.3.0 + libmatroska v1.4.1
Cover : Yes
_STATISTICS_WRITING_APP : mkvmerge v7.1.0 ('Good Love') 32bit built on Jul 27 2014 12:59:18
_STATISTICS_WRITING_DATE_UTC : 2014-10-01 20:55:38
_STATISTICS_TAGS : BPS DURATION NUMBER_OF_FRAMES NUMBER_OF_BYTES
DURATION : 00:18:53.497000000
NUMBER_OF_FRAMES : 397
NUMBER_OF_BYTES : 12661

Video
ID : 1
Format : AVC
Format/Info : Advanced Video Codec
Format profile : High@L3.1
Format settings, CABAC : Yes
Format settings, ReFrames : 4 frames
Codec ID : V_MPEG4/ISO/AVC
Duration : 19mn 47s
Bit rate : 4 100 Kbps
Width : 1 280 pixels
Height : 718 pixels
Display aspect ratio : 16:9
Frame rate mode : Constant
Frame rate : 23.976 fps
Color space : YUV
Chroma subsampling : 4:2:0
Bit depth : 8 bits
Scan type : Progressive
Bits/(Pixel*Frame) : 0.186
Stream size : 581 MiB (90%)
Writing library : x264 core 142 r2431 ac76440
Encoding settings : cabac=1 / ref=3 / deblock=1:-2:-2 / analyse=0x3:0x133 / me=umh / subme=9 / psy=1 / psy_rd=1.00:0.00 / mixed_ref=1 / me_range=24 / chroma_me=1 / trellis=1 / 8x8dct=1 / cqm=0 / deadzone=21,11 / fast_pskip=0 / chroma_qp_offset=-2 / threads=1 / lookahead_threads=1 / sliced_threads=0 / nr=0 / decimate=1 / interlaced=0 / bluray_compat=0 / constrained_intra=0 / bframes=3 / b_pyramid=2 / b_adapt=1 / b_bias=0 / direct=1 / weightb=1 / open_gop=0 / weightp=2 / keyint=240 / keyint_min=23 / scenecut=40 / intra_refresh=0 / rc_lookahead=40 / rc=crf / mbtree=1 / crf=21.0 / qcomp=0.60 / qpmin=0 / qpmax=69 / qpstep=4 / ip_ratio=1.40 / aq=1:1.00
Language : English
Default : Yes
Forced : No

Audio #1
ID : 2
Format : AC-3
Format/Info : Audio Coding 3
Mode extension : CM (complete main)
Format settings, Endianness : Big
Codec ID : A_AC3
Duration : 19mn 47s
Bit rate mode : Constant
Bit rate : 192 Kbps
Channel(s) : 2 channels
Channel positions : Front: L R
Sampling rate : 48.0 KHz
Bit depth : 16 bits
Compression mode : Lossy
Stream size : 27.2 MiB (4%)
Title : DVO [DekinStudio]
Language : Russian
Default : Yes
Forced : No

Audio #2
ID : 3
Format : AC-3
Format/Info : Audio Coding 3
Mode extension : CM (complete main)
Format settings, Endianness : Big
Codec ID : A_AC3
Duration : 19mn 47s
Bit rate mode : Constant
Bit rate : 192 Kbps
Channel(s) : 2 channels
Channel positions : Front: L R
Sampling rate : 48.0 KHz
Bit depth : 16 bits
Compression mode : Lossy
Stream size : 27.2 MiB (4%)
Title : Original
Language : English
Default : No
Forced : No

Text #1
ID : 4
Format : UTF-8
Codec ID : S_TEXT/UTF8
Codec ID/Info : UTF-8 Plain Text
Title : forced
Language : Russian
Default : Yes
Forced : No

Text #2
ID : 5
Format : UTF-8
Codec ID : S_TEXT/UTF8
Codec ID/Info : UTF-8 Plain Text
Title : [Александр Артемов]
Language : Russian
Default : No
Forced : No

Text #3
ID : 6
Format : UTF-8
Codec ID : S_TEXT/UTF8
Codec ID/Info : UTF-8 Plain Text
Title : Original
Language : English
Default : No
Forced : No


Теория большого взрыва скачать торрент


piratbit.pw



Скачать Теория большого взрыва через торрент http://pic.kartinco.top/images/8/vf5h9.jpg Скачать фильм Теория большого взрыва через торрент бесплантно в хорошем качестве Описание: Теория большого взрыва – популярная ситуационная комедия о жизни молодых ученых-физиков. Сюжет строится на событиях, которые ... 9.7 10 3
Info! Золотая раздача, скачанное не засчитывается.
Торрент: Зарегистрирован [2015-01-13 07:44] · скачан: 34 раз
Статус: √ проверено
Размер: 7.57 GB
Как cкачать? Как скачать Теория большого взрыва через торрент | qTorrent

28-11-2019 20:33  

Отключить всю рекламу на сайте

    Дорогой пользователь! Огромная просьба, поблагодарите релизера, оцените раздачу и оставьте свои комментарий, если Вы скачали Теория большого взрыва через торрент бесплатно! Внесите свою лепту в развитие PiratBit!
    Комментировать посты могут только пользователи прошедшие не сложную регистрацию
    Показать сообщения:    

    Теория большого взрыва через торрент
    Скачать бесплатно Теория большого взрыва
    Теория большого взрыва скачать торрент
    Теория большого взрыва смотреть онлайн
    Cкачать фильм Теория большого взрыва бесплатно
    Теория большого взрыва скачать торрент в хорошем качестве
    Теория большого взрыва смотреть онлайн бесплатно в хорошем качестве


    Вы не можете начинать темы
    Вы не можете отвечать на сообщения
    Вы не можете редактировать свои сообщения
    Вы не можете удалять свои сообщения
    Вы не можете голосовать в опросах
    Вы не можете прикреплять файлы к сообщениям
    Вы можете скачивать файлы