Ссылка на приватное зеркало нашего сайта всего за 1$. Внимание количество ограничено!!!

2 сезон

iTunes

1 сезон

1

iTunes

iTunes

iTunes

1 сезон

RePack

30

ИГРА 18+

pack

ВАЖНО

!!Акция!!

Alien_RageХит недели

RePack

MK11
pack

Забери бонус

RePack

jed

!!Акция!!

Alien_Rage

RePack

fifa19

RePack

Assassins Creed: Odyssey

RePack

NEED FOR SPEED™ PAYBACK

4 сезон

9 сезон

Бесстыжие 9 сезон

Все сериалы

все сериалы на PB.wtf

RePack

FAR CRY 5
  

Территория Джа (Алексей Пантелеев ) [2015, фантастика, фэнтези, комедия, WEB-DLRip] piratbit.pw

Территория Джа через торрент piratbit.pw

Размер: 1.46 GB | Добавлен: 5 лет 9 мес. назад | Торрент скачан:1058 раз
Скачать  

12-01-2015 13:17 Территория Джа Скачать торрент  


Территория Джа


Год выпуска:2015
Страна: Россия, Казахстан
Жанр:фантастика, фэнтези, комедия
Продолжительность:01:34:23
Перевод:Не требуется
Режиссер:Алексей Пантелеев

  • В ролях:

    Вадим Шлахтер (генерал), Александр Лаэртский (президент Галактики), Сергей Белоголовцев (капитан космического корабля), Кирилл Нагиев, Венчислав Хотяновский (Джинн), Ян Воробьев (помощник президента), Дмитрий Нагиев (специалист по переговорам с внеземными цивилизациями), Михаил Разинкин, Елена Беркова, Евгений Корона, Павел Вербняк (специальный корреспондент)
  • Описание:
    К нашей планете летят метеориты, люди принимают решение каким-то способом отодвинуть Землю в сторону от смертоносного потока. Они цепляют земной шарик к космическому кораблю и оттаскивают, но так опрометчиво, что помещают ее рядом с другой планетой, которую населяют странные существа, подчиняющиеся смешному богу Джа. И начинается конфликт...


    Качество: WEB-DLRip
    Формат:AVI
    Видео кодек: XviD
    Аудио кодек:AC3
    Видео: XviD, 720x400 (16:9), 1949 kbps, 25 fps, 0,271 bpp
    Аудио: AC3 / 2.0 / 48 kHz / 256 kbps / 16 bit


    Код:

    General
    Complete name                            : D:\Торенты\Jah.Terr1tory.2015.O.WEB-DLRip.avi
    Format                                   : AVI
    Format/Info                              : Audio Video Interleave
    File size                                : 1.46 GiB
    Duration                                 : 1h 34mn
    Overall bit rate                         : 2 215 Kbps
    Writing application                      : VirtualDubMod 1.5.10.2 (build 2540/release)
    Writing library                          : VirtualDubMod build 2540/release

    Video
    ID                                       : 0
    Format                                   : MPEG-4 Visual
    Format profile                           : Advanced Simple@L5
    Format settings, BVOP                    : 2
    Format settings, QPel                    : No
    Format settings, GMC                     : No warppoints
    Format settings, Matrix                  : Default (MPEG)
    Codec ID                                 : XVID
    Codec ID/Hint                            : XviD
    Duration                                 : 1h 34mn
    Bit rate                                 : 1 950 Kbps
    Width                                    : 720 pixels
    Height                                   : 400 pixels
    Display aspect ratio                     : 16:9
    Frame rate                               : 25.000 fps
    Color space                              : YUV
    Chroma subsampling                       : 4:2:0
    Bit depth                                : 8 bits
    Scan type                                : Progressive
    Compression mode                         : Lossy
    Bits/(Pixel*Frame)                       : 0.271
    Stream size                              : 1.29 GiB (88%)
    Writing library                          : XviD 1.2.1 (UTC 2008-12-04)

    Audio
    ID                                       : 1
    Format                                   : AC-3
    Format/Info                              : Audio Coding 3
    Mode extension                           : CM (complete main)
    Codec ID                                 : 2000
    Duration                                 : 1h 34mn
    Bit rate mode                            : Constant
    Bit rate                                 : 256 Kbps
    Channel(s)                               : 2 channels
    Channel positions                        : Front: L R
    Sampling rate                            : 48.0 KHz
    Bit depth                                : 16 bits
    Compression mode                         : Lossy
    Stream size                              : 173 MiB (12%)
    Alignment                                : Split accross interleaves
    Interleave, duration                     : 40 ms (1.00 video frame)
    Interleave, preload duration             : 500 ms

    Скриншоты:



    Каталог Новинок (Фильмы-трейлеры, Игры, Сериалы, Мультфильмы)

    © Оформление by Ворон
    piratbit.pw



  • Скачать Территория Джа через торрент http://pic.kartinco.top/images/6/ordi9.jpg Скачать фильм Территория Джа через торрент бесплантно в хорошем качестве Описание:К нашей планете летят метеориты, люди принимают решение каким-то способом отодвинуть Землю в сторону от смертоносного потока. Они ... 7.7 10 31
    Торрент: Зарегистрирован [2015-01-12 13:17] · скачан: 1 058 раз
    Статус: √ проверено
    Размер: 1.46 GB
    Как cкачать? Как скачать Территория Джа через торрент | qTorrent

    % Раздел Тема Автор DL S | L
    T Наши фильмы (HD, WEB-DL 720p, 1080p) [ 1.95 GB ] Территория Джа [2015 WEB-DL 720p] Ворон Скачать
    1 | 0

    28-11-2019 20:33  

    Отключить всю рекламу на сайте

    12-01-2015 13:30 Территория Джа Скачать торрент  

    Иду... Курю....piratbit.pw



    12-01-2015 15:09 Территория Джа Скачать торрент  

    Смешной бог Джа) Ясно)piratbit.pw



    12-01-2015 15:41 Территория Джа Скачать торрент  

    Елена Беркова

    Планету отодвинуть ?

    Смешной бог Джа ?

    что это ?piratbit.pw



    12-01-2015 15:55 Территория Джа Скачать торрент  

    Как фильм ?piratbit.pw



    12-01-2015 21:05 Территория Джа Скачать торрент  

    Вухххх!! По любому скачаю!! Актерский состав просто нет слов! Елена Беркова!!! Даже интересно кем она там будет или кто ее будет))) Но заинтриговал Александр Лаэртский, может Беркова будет грустной школьницей
    sarcasticpiratbit.pw



    12-01-2015 22:59 Территория Джа Скачать торрент  

    Пучков, как же ты в такое сунулся...piratbit.pw



    13-01-2015 06:16 Территория Джа Скачать торрент  

    это ж чего они все наелись что б в такой какашуле сняться, дегенерируешь с каждой минутой просмотра, полный отстой......piratbit.pw



    13-01-2015 16:25 Территория Джа Скачать торрент  

    шлак :hunter:piratbit.pw



    13-01-2015 18:36 Территория Джа Скачать торрент  

    Паленой казахской водки напиться и не то еще снять можно piratbit.pw



    15-01-2015 07:37 Территория Джа Скачать торрент  

    редкостная какашка, это чего накурится надо было, чтоб такое снять???piratbit.pw



    18-01-2015 12:49 Территория Джа Скачать торрент  

    Не тратьте время на просмотр этого "шедевра"!!! Шлак полный!!piratbit.pw



      Дорогой пользователь! Огромная просьба, поблагодарите релизера, оцените раздачу и оставьте свои комментарий, если Вы скачали Территория Джа через торрент бесплатно! Внесите свою лепту в развитие PiratBit!
      Комментировать посты могут только пользователи прошедшие не сложную регистрацию
      Показать сообщения:    

      Территория Джа через торрент
      Скачать бесплатно Территория Джа
      Территория Джа скачать торрент
      Территория Джа смотреть онлайн
      Cкачать фильм Территория Джа бесплатно
      Территория Джа скачать торрент в хорошем качестве
      Территория Джа смотреть онлайн бесплатно в хорошем качестве


      Вы не можете начинать темы
      Вы не можете отвечать на сообщения
      Вы не можете редактировать свои сообщения
      Вы не можете удалять свои сообщения
      Вы не можете голосовать в опросах
      Вы не можете прикреплять файлы к сообщениям
      Вы можете скачивать файлы