1 сезон

3 сезон

iTunes

1

iTunes

DUB Netflix

iTunes

13

1 сезон

RePack

30

Deluxe

pack

Легкие деньги

ВАЖНО

ИГРА 18+

pack

RePack

MK11

RePack

jed

RePack

fifa19

RePack

RDR2

RePack

NEED FOR SPEED™ PAYBACK

4 сезон

9 сезон

Бесстыжие 9 сезон

Все сериалы

все сериалы на PB.wtf

RePack

FAR CRY 5

Anonymous, добрый вечер, мы не успеваем до 1 числа собрать деньги на оплату серверов, помогите нам пожалуйста в это трудное время. В качестве благодарности мы отключим Вам всю рекламу на сайте (укажите свой ник в строку Ваше имя)!

×
  
Magnet ссылка

Заповедник / Preservation (Кристофер Денэм ) [2014, ужасы, триллер, HDRip, Любительский (одноголосый) [Xixidok] piratbit.pw

Заповедник через торрент piratbit.pw

Размер: 738 MB | Добавлен: 6 лет 5 мес. назад | Торрент скачан:103 раза
Скачать  

12-01-2015 12:01 Заповедник Скачать торрент  


Заповедник / Preservation


Год выпуска:2014
Страна: США
Жанр:ужасы, триллер
Продолжительность:01:28:15
Перевод:Любительский (одноголосый) [Xixidok]
Режиссер:Кристофер Денэм

  • В ролях:

    Пабло Шрайбер (Sean Neary), Аарон Стэтон (Mike Neary), Ренн Шмидт (Wit Neary), Cody Saintgnue (Jack), Ник Сашо (Ben), Michael Chacon (Will)
  • Описание:
    Два брата, Шон и Майк и жена Майка оправляются поохотится, чтоб отвлечься от домашних проблем. Не обращая на запрещающие знаки, они проникают в закрытый заповедник и их проблемы только начинаются.

  • Мировая премьера:17 апреля 2014

    Качество: HDRip
    Формат:AVI
    Видео кодек: XviD
    Аудио кодек:MP3
    Видео: XviD, 640x272 (2.35:1), 968 kbps, 23,976 fps, 0,232 bpp
    Аудио: MP3 / 2.0 / 44 kHz / 192 kbps /


    Код:

    General
    Complete name                            : D:\Торенты\Preservation.2014.HDRip.Xixidok.avi
    Format                                   : AVI
    Format/Info                              : Audio Video Interleave
    File size                                : 738 MiB
    Duration                                 : 1h 28mn
    Overall bit rate                         : 1 170 Kbps
    Writing application                      : VirtualDubMod 1.5.10.3 (build 2550/release)
    Writing library                          : VirtualDubMod build 2550/release

    Video
    ID                                       : 0
    Format                                   : MPEG-4 Visual
    Format profile                           : Advanced Simple@L5
    Format settings, BVOP                    : 2
    Format settings, QPel                    : No
    Format settings, GMC                     : No warppoints
    Format settings, Matrix                  : Default (H.263)
    Muxing mode                              : Packed bitstream
    Codec ID                                 : XVID
    Codec ID/Hint                            : XviD
    Duration                                 : 1h 28mn
    Bit rate                                 : 968 Kbps
    Width                                    : 640 pixels
    Height                                   : 272 pixels
    Display aspect ratio                     : 2.35:1
    Frame rate                               : 23.976 fps
    Color space                              : YUV
    Chroma subsampling                       : 4:2:0
    Bit depth                                : 8 bits
    Scan type                                : Progressive
    Compression mode                         : Lossy
    Bits/(Pixel*Frame)                       : 0.232
    Stream size                              : 611 MiB (83%)
    Writing library                          : XviD 64

    Audio
    ID                                       : 1
    Format                                   : MPEG Audio
    Format version                           : Version 1
    Format profile                           : Layer 3
    Codec ID                                 : 55
    Codec ID/Hint                            : MP3
    Duration                                 : 1h 28mn
    Bit rate mode                            : Constant
    Bit rate                                 : 192 Kbps
    Channel(s)                               : 2 channels
    Sampling rate                            : 44.1 KHz
    Compression mode                         : Lossy
    Stream size                              : 121 MiB (16%)
    Alignment                                : Split accross interleaves
    Interleave, duration                     : 42 ms (1.00 video frame)
    Interleave, preload duration             : 500 ms

    Скриншоты:

    Каталог Новинок (Фильмы-трейлеры, Игры, Сериалы, Мультфильмы)

    © Оформление by Ворон
    piratbit.pw



  • Скачать Заповедник через торрент https://pic1.kartinco.top/images/61/ordi9.jpg Скачать фильм Заповедник через торрент бесплантно в хорошем качестве Описание:Два брата, Шон и Майк и жена Майка оправляются поохотится, чтоб отвлечься от домашних проблем. Не обращая на запрещающие знаки, ... 9.8 10 5
    Торрент: Зарегистрирован [2015-01-12 12:01] · скачан: 103 раз
    Статус: T временная
    Размер: 738 MB
    Как cкачать? Как скачать Заповедник через торрент | UTorrent

    % Раздел Тема Автор DL S | L
    T Фильмы 2014 (Звук TS, Cam, VO, DVO) [ 1.38 GB ] Заповедник / Preservation [2014 WEB-DLRip Любительский двухголосый [HamsterStudio] Ворон Скачать
    1 | 0
    T Фильмы 2014 (Звук TS, Cam, VO, DVO) [ 1.38 GB ] Заповедник / Preservation [2014 WEB-DLRip Любительский [Xixidok] Ворон Скачать
    1 | 0

    28-11-2019 20:33  

    Отключить всю рекламу на сайте

    12-01-2015 12:21 Заповедник Скачать торрент  

    Жена Водолазка))piratbit.pw



      Дорогой пользователь! Огромная просьба, поблагодарите релизера, оцените раздачу и оставьте свои комментарий, если Вы скачали Заповедник через торрент бесплатно! Внесите свою лепту в развитие PiratBit!
      Комментировать посты могут только пользователи прошедшие не сложную регистрацию
      Показать сообщения:    

      Заповедник через торрент
      Скачать бесплатно Заповедник
      Заповедник скачать торрент
      Заповедник смотреть онлайн
      Cкачать фильм Заповедник бесплатно
      Заповедник скачать торрент в хорошем качестве
      Заповедник смотреть онлайн бесплатно в хорошем качестве


      Вы не можете начинать темы
      Вы не можете отвечать на сообщения
      Вы не можете редактировать свои сообщения
      Вы не можете удалять свои сообщения
      Вы не можете голосовать в опросах
      Вы не можете прикреплять файлы к сообщениям
      Вы можете скачивать файлы