Ссылка на приватное зеркало всего за 1$. Внимание количество ограничено!!!

iTunes

iTunes

iTunes

1

iTunes

iTunes

iTunes

iTunes

iTunes

30
pack

$ от Little Big

ВАЖНО

!!Акция!!

Alien_RageХит недели

RePack

Resident Evil 21

ИГРА 18+

pack

RePack

jed

!!Акция!!

Alien_Rage

RePack

fifa19

RePack

Assassins Creed: Odyssey

RePack

NEED FOR SPEED™ PAYBACK

4 сезон

9 сезон

Бесстыжие 9 сезон

Все сериалы

все сериалы на PB.wtf

RePack

FAR CRY 5
  

Вычислитель (Дмитрий Грачев) [2014, Россия, фантастика, WEB-DLRip-AVC,] Tunes] От R.G. PiratFilms piratbit.pw

Вычислитель через торрент piratbit.pw

Размер: 1.42 GB | Добавлен: 5 лет 6 мес. назад | Торрент скачан:1217 раз
Скачать  

10-01-2015 10:09 Вычислитель Скачать торрент  



Год выпуска: 2014
Страна: Россия
Жанр: фантастика
Продолжительность: 01:26:12
Перевод: Оригинал - iTunes
Субтитры: Нет
Режиссер: Дмитрий Грачев
В ролях:

Евгений Миронов (Эрвин Канн), Винни Джонс (Юст Ван Борг), Анна Чиповская (Кристи), Иван Верховых (Джоб), Владас Багдонас (Ян), Алексей Колубков (Валентин), Никита Панфилов (Матиас), Линда Нигматулина (Лейла), Пётр Сковцов (Хаймэ), Ирене Мускара (Мария), Кирилл Козаков (капитан), Анна Попова (Анна)
Описание:
Десять заключенных, приговоренных к пожизненному изгнанию с планеты XT-59, отправляются в опасный путь через Саргассово Болото. Группа сразу делится на две части: Эрвин и Кристи идут на поиск Счастливых Островов, Юст ведет остальных к Гнилой Мели. Однако долгое время их маршруты практически совпадают. В первый же вечер Эрвин понимает, что его должны убить - в прошлой жизни он занимал слишком высокий пост, и теперь он опасен для тех, кто пришел к власти. Выбрав в попутчицы Кристи, он сразу старается уйти подальше от остальных членов группы, чтобы обезопасить себя. На пути к Счастливым островам герои преодолевают массу препятствий. Цена этому - свобода и счастье.
Релиз от:
    Качество: WEB-DLRip-AVC (исх. WEB-DLRip 1080p)
    Формат: MKV
    Видео кодек: AVC
    Аудио кодек:AC3
    Видео: AVC, 1024x430 (2.40:1), 1980 kbps, 24 fps, 0,187 bpp
    Аудио: русский / AC3 / 5.1 / 48 kHz / 384 kbps / 16 bit ||


Код:

---[Information] [09.01.2015 23:35:49] x264 [info]: frame I:843   Avg QP:12.09  size: 67747  PSNR Mean Y:50.83 U:55.25 V:54.67 Avg:51.79 Global:51.23
---[Information] [09.01.2015 23:35:49] x264 [info]: frame P:32926 Avg QP:15.31  size: 20945  PSNR Mean Y:47.94 U:52.92 V:52.39 Avg:48.97 Global:48.43
---[Information] [09.01.2015 23:35:49] x264 [info]: frame B:90379 Avg QP:17.93  size:  5899  PSNR Mean Y:47.37 U:53.20 V:52.58 Avg:48.49 Global:47.68
---[Information] [09.01.2015 23:35:49] x264 [info]: consecutive B-frames:  2.8%  5.7%  5.9% 65.4%  4.8%  9.2%  1.2%  4.0%  1.0%

Код:

General
Unique ID                                : 222176486795609678967166995793365946560 (0xA725A287E0E8143D98379458EE0BD0C0)
Complete name                            : D:\рипы От R.G. PiratFilms\By41CL1teLj.2014.WEB DLRip-AVC.by.White Smoke.R.G.PiratFilms.mkv
Format                                   : Matroska
Format version                           : Version 4 / Version 2
File size                                : 1.42 GiB
Duration                                 : 1h 26mn
Overall bit rate                         : 2 365 Kbps
Movie name                               : By41CL1teLj.2014.WEB DLRip-AVC.by.White Smoke.R.G.PiratFilms.mkv
Encoded date                             : UTC 2015-01-10 09:22:39
Writing application                      : mkvmerge v6.8.0 ('Theme for Great Cities') 64bit built on Mar  2 2014 21:34:26
Writing library                          : libebml v1.3.0 + libmatroska v1.4.1

Video
ID                                       : 1
Format                                   : AVC
Format/Info                              : Advanced Video Codec
Format profile                           : High@L4.1
Format settings, CABAC                   : Yes
Format settings, ReFrames                : 12 frames
Codec ID                                 : V_MPEG4/ISO/AVC
Duration                                 : 1h 26mn
Bit rate                                 : 1 980 Kbps
Width                                    : 1 024 pixels
Height                                   : 430 pixels
Display aspect ratio                     : 2.40:1
Frame rate                               : 24.000 fps
Color space                              : YUV
Chroma subsampling                       : 4:2:0
Bit depth                                : 8 bits
Scan type                                : Progressive
Bits/(Pixel*Frame)                       : 0.187
Stream size                              : 1.16 GiB (82%)
Writing library                          : x264 core 142 r2431 ac76440
Encoding settings                        : cabac=1 / ref=12 / deblock=1:-3:-3 / analyse=0x3:0x113 / me=umh / subme=9 / psy=1 / psy_rd=1.00:0.00 / mixed_ref=1 / me_range=32 / chroma_me=1 / trellis=1 / 8x8dct=1 / cqm=0 / deadzone=21,11 / fast_pskip=1 / chroma_qp_offset=-2 / threads=12 / lookahead_threads=2 / sliced_threads=0 / nr=0 / decimate=1 / interlaced=0 / bluray_compat=0 / constrained_intra=0 / bframes=8 / b_pyramid=2 / b_adapt=2 / b_bias=8 / direct=1 / weightb=0 / open_gop=0 / weightp=2 / keyint=240 / keyint_min=24 / scenecut=40 / intra_refresh=0 / rc_lookahead=40 / rc=2pass / mbtree=1 / bitrate=1980 / ratetol=1.0 / qcomp=0.65 / qpmin=0 / qpmax=69 / qpstep=4 / cplxblur=20.0 / qblur=0.5 / ip_ratio=1.40 / aq=1:1.00
Language                                 : English
Default                                  : Yes
Forced                                   : No

Audio
ID                                       : 2
Format                                   : AC-3
Format/Info                              : Audio Coding 3
Mode extension                           : CM (complete main)
Codec ID                                 : A_AC3
Duration                                 : 1h 26mn
Bit rate mode                            : Constant
Bit rate                                 : 384 Kbps
Channel(s)                               : 6 channels
Channel positions                        : Front: L C R, Side: L R, LFE
Sampling rate                            : 48.0 KHz
Bit depth                                : 16 bits
Compression mode                         : Lossy
Stream size                              : 237 MiB (16%)
Language                                 : Russian
Default                                  : Yes
Forced                                   : No


Скриншоты:

За Обложку к релизу спасибо =ItachiUchiha=



piratbit.pw



Скачать Вычислитель через торрент http://pic.kartinco.top/images/8/z1p1j.jpg Скачать фильм Вычислитель через торрент бесплантно в хорошем качестве Описание: Десять заключенных, приговоренных к пожизненному изгнанию с планеты XT-59, отправляются в опасный путь через Саргассово Болото. ... 9 10 35
Info! Золотая раздача, скачанное не засчитывается.
Торрент: Зарегистрирован [2015-01-10 10:12] · скачан: 1 217 раз
Статус: √ проверено
Размер: 1.42 GB
Как cкачать? Как скачать Вычислитель через торрент | qTorrent

28-11-2019 20:33  

Отключить всю рекламу на сайте

10-01-2015 12:16 Вычислитель Скачать торрент  

а где же комменты?) мол русские фильмы говно, "жэстачайшэ" наказать режиссера?))piratbit.pw



10-01-2015 19:20 Вычислитель Скачать торрент  

REippoN, не трогайте режиссёра! у него продюсер и так бондарчуг был!piratbit.pw



10-01-2015 22:34 Вычислитель Скачать торрент  

бондарчуг? чо обитаимый остраф возвращение?piratbit.pw



12-01-2015 17:51 Вычислитель Скачать торрент  

Полтора часа потерянного времени(((
Надеялся на чудо.Но чудес не бывает.Фантастика от Российского кинематографа-это фантастика.
piratbit.pw



22-01-2015 16:54 Вычислитель Скачать торрент  

отстойнейшее ничтожество! слава богу, на кинотеатр не потратилисьpiratbit.pw



22-01-2015 16:57 Вычислитель Скачать торрент  

и, пардон, откуда такая высокая оценка??!! где эти высокие ценители прекрасного?piratbit.pw



25-02-2015 19:08 Вычислитель Скачать торрент  

это фильм по хорошей книге. Не верится что можно из этой книги УГ сделать. Ща посмотрю проверюpiratbit.pw



    Дорогой пользователь! Огромная просьба, поблагодарите релизера, оцените раздачу и оставьте свои комментарий, если Вы скачали Вычислитель через торрент бесплатно! Внесите свою лепту в развитие PiratBit!
    Комментировать посты могут только пользователи прошедшие не сложную регистрацию
    Показать сообщения:    

    Вычислитель через торрент
    Скачать бесплатно Вычислитель
    Вычислитель скачать торрент
    Вычислитель смотреть онлайн
    Cкачать фильм Вычислитель бесплатно
    Вычислитель скачать торрент в хорошем качестве
    Вычислитель смотреть онлайн бесплатно в хорошем качестве


    Вы не можете начинать темы
    Вы не можете отвечать на сообщения
    Вы не можете редактировать свои сообщения
    Вы не можете удалять свои сообщения
    Вы не можете голосовать в опросах
    Вы не можете прикреплять файлы к сообщениям
    Вы можете скачивать файлы