1 сезон

3 сезон

iTunes

1

iTunes

DUB Netflix

iTunes

13

1 сезон

RePack

30

Deluxe

pack

Легкие деньги

ВАЖНО

ИГРА 18+

pack

RePack

MK11

RePack

jed

RePack

fifa19

RePack

RDR2

RePack

NEED FOR SPEED™ PAYBACK

4 сезон

9 сезон

Бесстыжие 9 сезон

Все сериалы

все сериалы на PB.wtf

RePack

FAR CRY 5

Anonymous, доброе утро, мы не успеваем до 1 числа собрать деньги на оплату серверов, помогите нам пожалуйста в это трудное время. В качестве благодарности мы отключим Вам всю рекламу на сайте (укажите свой ник в строку Ваше имя)!

×
  
Magnet ссылка

Найди меня / Find Me (Энди Палмер) [2014 г., WEB-DLRip, Любительский двухголосый "МЕГАПЫХАРЬ и Элис"] piratbit.pw

Найди меня через торрент piratbit.pw

Размер: 1.46 GB | Добавлен: 6 лет 5 мес. назад | Торрент скачан:148 раз
Скачать  

09-01-2015 18:28 Найди меня Скачать торрент  

Найди меня / Find Me
Год выпуска: 2014
Страна: США / Petri Entertainment
Продолжительность: 01:26:51
Перевод: Любительский двухголосый (МЕГАПЫХАРЬ и Элис)

Режиссер: Энди Палмер

В ролях: Камерон Бендер, Кэтрин Лин, Рейчел Димария, Карлос Аласраки

Описание: Молодожёны Тим и Эмили наконец-то приобрели свой первый дом. Но ещё даже не распаковав все вещи, они обнаружили, что в доме живёт призрак. Не долго думая, они вступают с ним в опсную игру...

Качество: WEB-DLRip
Формат: AVI
Видео кодек: XviD
Аудио кодек: AC3
Видео: 720x400 (1.80:1), 23.976 fps, XviD build 50 ~2208 kbps avg, 0.32 bit/pixel
Аудио: 48 kHz, AC3 Dolby Digital, 2/0 (L,R) ch, ~192 kbps

скриншот   скриншот   скриншот   скриншот   скриншот   скриншот  

Общее
Полное имя : F:\кино\Find.Me.2014.WEB-DLRip.avi
Формат : AVI
Формат/Информация : Audio Video Interleave
Размер файла : 1,46 Гбайт
Продолжительность : 1 ч. 26 м.
Общий поток : 2410 Кбит/сек
Программа кодирования : VirtualDubMod 1.5.10.3 | www.virtualdub-fr.org || (build 2550/release)
Библиотека кодирования : VirtualDubMod build 2550/release

Видео
Идентификатор : 0
Формат : MPEG-4 Visual
Профиль формата : Advanced Simple@L5
Параметр BVOP формата : 2
Параметр QPel формата : Нет
Параметр GMC формата : Без точки перехода
Параметр матрицы формата : Default (H.263)
Идентификатор кодека : XVID
Идентификатор кодека/Подсказка : XviD
Продолжительность : 1 ч. 26 м.
Битрейт : 2209 Кбит/сек
Ширина : 720 пикселей
Высота : 400 пикселей
Соотношение сторон : 16:9
Частота кадров : 23,976 кадра/сек
Цветовое пространство : YUV
Субдискретизация насыщенности : 4:2:0
Битовая глубина : 8 бит
Тип развёртки : Прогрессивная
Метод сжатия : С потерями
Бит/(Пиксели*Кадры) : 0.320
Размер потока : 1,34 Гбайт (92%)
Библиотека кодирования : XviD 1.2.1 (UTC 2008-12-04)

Аудио
Идентификатор : 1
Формат : AC-3
Формат/Информация : Audio Coding 3
Расширение режима : CM (complete main)
Параметр Endianness формата : Big
Идентификатор кодека : 2000
Продолжительность : 1 ч. 26 м.
Вид битрейта : Постоянный
Битрейт : 192 Кбит/сек
Каналы : 2 канала
Расположение каналов : Front: L R
Частота : 48,0 КГц
Битовая глубина : 16 бит
Метод сжатия : С потерями
Размер потока : 119 Мбайт (8%)
Выравнивание : Разделение по промежуткам
Продолжительность промежутка : 42 мс. (1,00 видеокадр)
Время предзагрузки промежутка : 500 мс.

piratbit.pw



Скачать Найди меня через торрент https://pic1.kartinco.top/images/81/c7voz.jpg Скачать фильм Найди меня через торрент бесплантно в хорошем качестве Описание: Молодожёны Тим и Эмили наконец-то приобрели свой первый дом. Но ещё даже не распаковав все вещи, они обнаружили, что в доме живёт ... 10 10 3
Торрент: Зарегистрирован [2015-01-09 18:28] · скачан: 148 раз
Статус: T временная
Размер: 1.46 GB
Как cкачать? Как скачать Найди меня через торрент | UTorrent

% Раздел Тема Автор DL S | L
Фильмы 2016 [DVDrip, WEB-DLRip, HDrip] (DUB, MVO) [ 1.41 GB ] Найди меня если сможешь / Come and Find Me [2016 BDRip] многоголосый Twi7ter Скачать
1 | 0
Фильмы 2016 [DVDrip, WEB-DLRip, HDrip] (DUB, MVO) [ 1.37 GB ] Найди меня если сможешь / Come and Find Me [2016 HDRip] многоголосый -Lexx- Скачать
1 | 0
Фильмы без перевода [ 3.88 GB ] Приди и найди меня / Come and Find Me [2016 WEB-DL 1080p] [ENG] killermax2013 Скачать
1 | 0

28-11-2019 20:33  

Отключить всю рекламу на сайте


10-01-2015 07:46 Найди меня Скачать торрент  

ну и как?
тишина в эфире...piratbit.pw



10-01-2015 19:21 Найди меня Скачать торрент  

до сих пор все в шоке после просмотра ))))piratbit.pw



12-01-2015 15:32 Найди меня Скачать торрент  

А где жанр?piratbit.pw



    Дорогой пользователь! Огромная просьба, поблагодарите релизера, оцените раздачу и оставьте свои комментарий, если Вы скачали Найди меня через торрент бесплатно! Внесите свою лепту в развитие PiratBit!
    Комментировать посты могут только пользователи прошедшие не сложную регистрацию
    Показать сообщения:    

    Найди меня через торрент
    Скачать бесплатно Найди меня
    Найди меня скачать торрент
    Найди меня смотреть онлайн
    Cкачать фильм Найди меня бесплатно
    Найди меня скачать торрент в хорошем качестве
    Найди меня смотреть онлайн бесплатно в хорошем качестве


    Вы не можете начинать темы
    Вы не можете отвечать на сообщения
    Вы не можете редактировать свои сообщения
    Вы не можете удалять свои сообщения
    Вы не можете голосовать в опросах
    Вы не можете прикреплять файлы к сообщениям
    Вы можете скачивать файлы