Ссылка на приватное зеркало нашего сайта всего за 1$. Внимание количество ограничено!!!

2 сезон

iTunes

1 сезон

1

iTunes

iTunes

iTunes

1 сезон

RePack

30

ИГРА 18+

pack

ВАЖНО

!!Акция!!

Alien_RageХит недели

RePack

MK11
pack

Забери бонус

RePack

jed

!!Акция!!

Alien_Rage

RePack

fifa19

RePack

Assassins Creed: Odyssey

RePack

NEED FOR SPEED™ PAYBACK

4 сезон

9 сезон

Бесстыжие 9 сезон

Все сериалы

все сериалы на PB.wtf

RePack

FAR CRY 5
  

Джокер: Возмездие (Сергей Арутюнян) [2015 г., Детектив, SATRip] piratbit.pw

Джокер: Возмездие через торрент piratbit.pw

Размер: 979 MB | Добавлен: 5 лет 9 мес. назад | Торрент скачан:904 раза
Скачать  

09-01-2015 14:53 Джокер: Возмездие Скачать торрент  

Джокер: ВозмездиеГод выпуска: 2015
Страна: Россия
Жанр: Детектив
Продолжительность: 01:23:50

Режиссер: Сергей Арутюнян

В ролях: Дмитрий Клепацкий, Анна Невская, Олег Шкловский, Евгений Березовский, Вячеслав Кулаков, Роман Ладнев, Андрей Зайцев, Юрий Кормушин, Армен Петросян

Описание: Артур Королёв скрывается за границей. Его жена Эльвира беременна, но у нее возникают проблемы со здоровьем, угрожающие ей и еще не родившемуся ребенку. Врачи назначают ей ежедневные уколы. Перерыв в приеме препарата более чем на 48 часов повлечет за собой смертельную угрозу жизни матери и ребенка. Врагам Артура удается выследить его, и они похищают жену в момент ее приезда в Москву. Артур понимает, что у него всего двое суток, чтобы найти Эльвиру. Он выставляет на часах обратный отсчет времени и пускается в погоню за похитителями..

Качество: SATRip
Формат: AVI
Видео кодек: XviD
Аудио кодек: MP3
Видео: MPEG4, XviD, 704x448 (1.571), 25.000 fps, 1 495 Kbps (0.190 bit/pixel)
Аудио: 48.0 KHz, 2 ch, 128 Kbps, CBR

Код:

Общее
Полное имя                               : D:\Games\Dzhoker Vozmezdie.2014.[PB.wtf]SATRip.avi
Формат                                   : AVI
Формат/Информация                        : Audio Video Interleave
Размер файла                             : 979 Мбайт
Продолжительность                        : 1 ч. 23 м.
Общий поток                              : 1633 Кбит/сек
Программа кодирования                    : VirtualDubMod 1.5.10.2 (build 2540/release)
Библиотека кодирования                   : VirtualDubMod build 2540/release

Видео
Идентификатор                            : 0
Формат                                   : MPEG-4 Visual
Профиль формата                          : Advanced Simple@L5
Параметр BVOP формата                    : 2
Параметр QPel формата                    : Нет
Параметр GMC формата                     : Без точки перехода
Параметр матрицы формата                 : Default (MPEG)
Режим смешивания                         : Сжатый битовый поток
Идентификатор кодека                     : XVID
Идентификатор кодека/Подсказка           : XviD
Продолжительность                        : 1 ч. 23 м.
Битрейт                                  : 1495 Кбит/сек
Ширина                                   : 704 пикселя
Высота                                   : 448 пикселей
Соотношение сторон                       : 16:10
Частота кадров                           : 25,000 кадров/сек
Цветовое пространство                    : YUV
Субдискретизация насыщенности            : 4:2:0
Битовая глубина                          : 8 бит
Тип развёртки                            : Прогрессивная
Метод сжатия                             : С потерями
Бит/(Пиксели*Кадры)                      : 0.190
Размер потока                            : 896 Мбайт (92%)
Библиотека кодирования                   : XviD 65

Аудио
Идентификатор                            : 1
Формат                                   : MPEG Audio
Версия формата                           : Version 1
Профиль формата                          : Layer 3
Режим                                    : Joint stereo
Идентификатор кодека                     : 55
Идентификатор кодека/Подсказка           : MP3
Продолжительность                        : 1 ч. 23 м.
Вид битрейта                             : Постоянный
Битрейт                                  : 128 Кбит/сек
Каналы                                   : 2 канала
Частота                                  : 48,0 КГц
Метод сжатия                             : С потерями
Размер потока                            : 76,8 Мбайт (8%)
Выравнивание                             : Соединение по промежуткам
Продолжительность промежутка             : 40  мс. (1,00 видеокадр)
Время предзагрузки промежутка            : 504  мс.


piratbit.pw



Скачать Джокер: Возмездие через торрент http://pic.kartinco.top/images/8/t661e.jpg Скачать фильм Джокер: Возмездие через торрент бесплантно в хорошем качестве Описание: Артур Королёв скрывается за границей. Его жена Эльвира беременна, но у нее возникают проблемы со здоровьем, угрожающие ей и еще ... 9.2 10 30
Info! Золотая раздача, скачанное не засчитывается.
Торрент: Зарегистрирован [2015-01-09 14:53] · скачан: 904 раз
Статус: √ проверено
Размер: 979 MB
Как cкачать? Как скачать Джокер: Возмездие через торрент | qTorrent

28-11-2019 20:33  

Отключить всю рекламу на сайте

    Дорогой пользователь! Огромная просьба, поблагодарите релизера, оцените раздачу и оставьте свои комментарий, если Вы скачали Джокер: Возмездие через торрент бесплатно! Внесите свою лепту в развитие PiratBit!
    Комментировать посты могут только пользователи прошедшие не сложную регистрацию
    Показать сообщения:    

    Джокер: Возмездие через торрент
    Скачать бесплатно Джокер: Возмездие
    Джокер: Возмездие скачать торрент
    Джокер: Возмездие смотреть онлайн
    Cкачать фильм Джокер: Возмездие бесплатно
    Джокер: Возмездие скачать торрент в хорошем качестве
    Джокер: Возмездие смотреть онлайн бесплатно в хорошем качестве


    Вы не можете начинать темы
    Вы не можете отвечать на сообщения
    Вы не можете редактировать свои сообщения
    Вы не можете удалять свои сообщения
    Вы не можете голосовать в опросах
    Вы не можете прикреплять файлы к сообщениям
    Вы можете скачивать файлы