1 сезон

3 сезон

iTunes

1

iTunes

DUB Netflix

iTunes

13

1 сезон

RePack

30

Deluxe

pack

Легкие деньги

ВАЖНО

ИГРА 18+

pack

RePack

MK11

RePack

jed

RePack

fifa19

RePack

RDR2

RePack

NEED FOR SPEED™ PAYBACK

4 сезон

9 сезон

Бесстыжие 9 сезон

Все сериалы

все сериалы на PB.wtf

RePack

FAR CRY 5

Anonymous, добрый вечер, мы не успеваем до 1 числа собрать деньги на оплату серверов, помогите нам пожалуйста в это трудное время. В качестве благодарности мы отключим Вам всю рекламу на сайте (укажите свой ник в строку Ваше имя)!

×
  
Magnet ссылка

Маленькая смерть 2: Скверные ленты / La Petite Mort 2: Nasty Tapes (Марсель Вальц) [2014 г., ужасы, триллер, HDRip, Любительский одноголосый "Васька Куролесов"] piratbit.pw

Маленькая смерть 2: Скверные ленты через торрент piratbit.pw

Размер: 1.47 GB | Добавлен: 6 лет 5 мес. назад | Торрент скачан:126 раз
Скачать  

08-01-2015 18:02 Маленькая смерть 2: Скверные ленты Скачать торрент  

Маленькая смерть 2: Скверные ленты / La Petite Mort 2: Nasty Tapes
Год выпуска: 2014
Страна: Германия, США / Matador Film See more »
Жанр: ужасы, триллер
Продолжительность: 01:23:01
Перевод: Любительский одноголосый (Васька Куролесов)

Режиссер: Марсель Вальц

В ролях: Мика Мец, Анника Штраус, Йоне Вульке, Микаела Шефер, Армин Барвич, Кай Пломанн, Биа Ла Биа, Габриэла Вирбл, Николь Нюкирш, Райан Николсон

Описание: После душераздирающих событий первой части, главой закрытого клуба в Германии «Maison De La Petite Mort» становится мунсир Матео Максиме и дает знать о своем заведении на весь мир благодаря экзотическим шоу, в котором люди платят деньги за всевозможные пытки и убийства заранее выбранных жертв.

Качество: HDRip
Формат: AVI
Видео кодек: XviD
Аудио кодек: AC3
Видео: 720x304 (2.37:1), 23.976 fps, XviD build 50 ~2268 kbps avg, 0.43 bit/pixel
Аудио: 48 kHz, AC3 Dolby Digital, 2/0 (L,R) ch, ~256 kbps

скриншот   скриншот   скриншот   скриншот   скриншот   скриншот   скриншот   скриншот   скриншот   скриншот  

Общее
Полное имя : F:\кино\Маленькая смерть 2 Скверные ленты.2014.HDRip.avi
Формат : AVI
Формат/Информация : Audio Video Interleave
Размер файла : 1,47 Гбайт
Продолжительность : 1 ч. 23 м.
Общий поток : 2534 Кбит/сек
Программа кодирования : VirtualDubMod 1.5.10.3 | www.virtualdub-fr.org || (build 2550/release)
Библиотека кодирования : VirtualDubMod build 2550/release

Видео
Идентификатор : 0
Формат : MPEG-4 Visual
Профиль формата : Advanced Simple@L5
Параметр BVOP формата : 2
Параметр QPel формата : Нет
Параметр GMC формата : Без точки перехода
Параметр матрицы формата : Default (H.263)
Идентификатор кодека : XVID
Идентификатор кодека/Подсказка : XviD
Продолжительность : 1 ч. 23 м.
Битрейт : 2268 Кбит/сек
Ширина : 720 пикселей
Высота : 304 пикселя
Соотношение сторон : 2,35:1
Частота кадров : 23,976 кадра/сек
Цветовое пространство : YUV
Субдискретизация насыщенности : 4:2:0
Битовая глубина : 8 бит
Тип развёртки : Прогрессивная
Метод сжатия : С потерями
Бит/(Пиксели*Кадры) : 0.432
Размер потока : 1,32 Гбайт (90%)
Библиотека кодирования : XviD 1.2.1 (UTC 2008-12-04)

Аудио
Идентификатор : 1
Формат : AC-3
Формат/Информация : Audio Coding 3
Расширение режима : CM (complete main)
Параметр Endianness формата : Big
Идентификатор кодека : 2000
Продолжительность : 1 ч. 23 м.
Вид битрейта : Постоянный
Битрейт : 256 Кбит/сек
Каналы : 2 канала
Расположение каналов : Front: L R
Частота : 48,0 КГц
Битовая глубина : 16 бит
Метод сжатия : С потерями
Размер потока : 152 Мбайт (10%)
Выравнивание : Разделение по промежуткам
Продолжительность промежутка : 42 мс. (1,00 видеокадр)
Время предзагрузки промежутка : 500 мс.

piratbit.pw



Скачать Маленькая смерть 2: Скверные ленты через торрент https://pic1.kartinco.top/images/81/df7q4.jpg Скачать фильм Маленькая смерть 2: Скверные ленты через торрент бесплантно в хорошем качестве Описание: После душераздирающих событий первой части, главой закрытого клуба в Германии «Maison De La Petite Mort» становится мунсир Матео ... 8.2 10 6
Торрент: Зарегистрирован [2015-01-08 18:02] · скачан: 126 раз
Статус: T временная
Размер: 1.47 GB
Как cкачать? Как скачать Маленькая смерть 2: Скверные ленты через торрент | UTorrent

28-11-2019 20:33  

Отключить всю рекламу на сайте

09-01-2015 12:06 Маленькая смерть 2: Скверные ленты Скачать торрент  

Автору спасибо за труды,а кинцо-отстой полнейший.piratbit.pw



    Дорогой пользователь! Огромная просьба, поблагодарите релизера, оцените раздачу и оставьте свои комментарий, если Вы скачали Маленькая смерть 2: Скверные ленты через торрент бесплатно! Внесите свою лепту в развитие PiratBit!
    Комментировать посты могут только пользователи прошедшие не сложную регистрацию
    Показать сообщения:    

    Маленькая смерть 2: Скверные ленты через торрент
    Скачать бесплатно Маленькая смерть 2: Скверные ленты
    Маленькая смерть 2: Скверные ленты скачать торрент
    Маленькая смерть 2: Скверные ленты смотреть онлайн
    Cкачать фильм Маленькая смерть 2: Скверные ленты бесплатно
    Маленькая смерть 2: Скверные ленты скачать торрент в хорошем качестве
    Маленькая смерть 2: Скверные ленты смотреть онлайн бесплатно в хорошем качестве


    Вы не можете начинать темы
    Вы не можете отвечать на сообщения
    Вы не можете редактировать свои сообщения
    Вы не можете удалять свои сообщения
    Вы не можете голосовать в опросах
    Вы не можете прикреплять файлы к сообщениям
    Вы можете скачивать файлы