1 сезон

3 сезон

iTunes

1

iTunes

DUB Netflix

iTunes

13

1 сезон

RePack

30

Deluxe

pack

Легкие деньги

ВАЖНО

ИГРА 18+

pack

RePack

MK11

RePack

jed

RePack

fifa19

RePack

RDR2

RePack

NEED FOR SPEED™ PAYBACK

4 сезон

9 сезон

Бесстыжие 9 сезон

Все сериалы

все сериалы на PB.wtf

RePack

FAR CRY 5

Anonymous, добрый вечер, мы не успеваем до 1 числа собрать деньги на оплату серверов, помогите нам пожалуйста в это трудное время. В качестве благодарности мы отключим Вам всю рекламу на сайте (укажите свой ник в строку Ваше имя)!

×
  
Magnet ссылка

Девять жизней Рождества / The Nine Lives of Christmas (Марк Жан / Mark Jean) [2014, США, мелодрама, HDTVRip) VO [mi24] piratbit.pw

Девять жизней Рождества через торрент piratbit.pw

Размер: 1.37 GB | Добавлен: 6 лет 5 мес. назад | Торрент скачан:164 раза
Скачать  

06-01-2015 04:25 Девять жизней Рождества Скачать торрент  

Девять жизней Рождества / The Nine Lives of Christmas


  • Год выпуска: 2014
  • Страна: США
  • Жанр: мелодрама

  • Продолжительность: 01:23:52
  • Перевод: Любительский (одноголосый)[mi24]

  • Режиссер: Марк Жан / Mark Jean
  • В ролях:

    Брэндон Рут (Zachary Stone), Кимберли Састад (Marilee White), Стефани Беннетт (Jaclyn), Челси Хоббс (Blair), Шон Тайсон (Ray), Далиас Блейк (Mark), Грегори Харрисон (Chief Sam), Тоня Ли Альберс (Melissa), Элисон Арая (Lucy), Дженнифер Чжон (Sarah), Стефен Димопоулос (Manny), Кэри Фихэн (Kyle)

  • Описание:
    После того, как бездомный кот поселяется в доме Закари, начинаются рождественские приключения двух молодых людей, которые в силу обстоятельств думают, что не готовы влюбиться...
  • Рейтинг:



  • Качество: HDTVRip
  • Формат: :AVI
  • Видео кодек: XviD
  • Аудио кодек: AC3
  • Видео: 720x400 (16:9), 2129 kbps, 29,970 fps, 0,247 bpp
  • Аудио: 2.0 / 48 kHz / 192 kbps / 16 bit
  • Релиз от: GEKADOL

    Код:

    General
    Complete name                            : I:\The.Nine.Lives.of.Christmas.2014.L1.HDTVRip.avi
    Format                                   : AVI
    Format/Info                              : Audio Video Interleave
    File size                                : 1.37 GiB
    Duration                                 : 1h 23mn
    Overall bit rate                         : 2 333 Kbps
    Writing application                      : VirtualDubMod 1.5.10.3 | www.virtualdub-fr.org || (build 2550/release)
    Writing library                          : VirtualDubMod build 2550/release

    Video
    ID                                       : 0
    Format                                   : MPEG-4 Visual
    Format profile                           : Advanced Simple@L5
    Format settings, BVOP                    : 1
    Format settings, QPel                    : No
    Format settings, GMC                     : No warppoints
    Format settings, Matrix                  : Custom
    Codec ID                                 : XVID
    Codec ID/Hint                            : XviD
    Duration                                 : 1h 23mn
    Bit rate                                 : 2 129 Kbps
    Width                                    : 720 pixels
    Height                                   : 400 pixels
    Display aspect ratio                     : 16:9
    Frame rate                               : 29.970 fps
    Color space                              : YUV
    Chroma subsampling                       : 4:2:0
    Bit depth                                : 8 bits
    Scan type                                : Progressive
    Compression mode                         : Lossy
    Bits/(Pixel*Frame)                       : 0.247
    Stream size                              : 1.25 GiB (91%)
    Writing library                          : XviD 73

    Audio
    ID                                       : 1
    Format                                   : AC-3
    Format/Info                              : Audio Coding 3
    Mode extension                           : CM (complete main)
    Codec ID                                 : 2000
    Duration                                 : 1h 23mn
    Bit rate mode                            : Constant
    Bit rate                                 : 192 Kbps
    Channel(s)                               : 2 channels
    Channel positions                        : Front: L R
    Sampling rate                            : 48.0 KHz
    Bit depth                                : 16 bits
    Compression mode                         : Lossy
    Stream size                              : 115 MiB (8%)
    Alignment                                : Split accross interleaves
    Interleave, duration                     : 33 ms (1.00 video frame)
    Interleave, preload duration             : 500 ms


    Скриншоты:



    piratbit.pw



  • Скачать Девять жизней Рождества через торрент http://i64.fastpic.ru/big/2015/0106/52/46ac1a62d9e7cdda2fb723d5dcb07e52.jpg Скачать фильм Девять жизней Рождества через торрент бесплантно в хорошем качестве Описание: После того, как бездомный кот поселяется в доме Закари, начинаются рождественские приключения двух молодых людей, которые в силу ... 9.8 10 5
    Торрент: Зарегистрирован [2015-01-06 04:25] · скачан: 164 раз
    Статус: √ проверено
    Размер: 1.37 GB
    Как cкачать? Как скачать Девять жизней Рождества через торрент | UTorrent

    28-11-2019 20:33  

    Отключить всю рекламу на сайте

      Дорогой пользователь! Огромная просьба, поблагодарите релизера, оцените раздачу и оставьте свои комментарий, если Вы скачали Девять жизней Рождества через торрент бесплатно! Внесите свою лепту в развитие PiratBit!
      Комментировать посты могут только пользователи прошедшие не сложную регистрацию
      Показать сообщения:    

      Девять жизней Рождества через торрент
      Скачать бесплатно Девять жизней Рождества
      Девять жизней Рождества скачать торрент
      Девять жизней Рождества смотреть онлайн
      Cкачать фильм Девять жизней Рождества бесплатно
      Девять жизней Рождества скачать торрент в хорошем качестве
      Девять жизней Рождества смотреть онлайн бесплатно в хорошем качестве


      Вы не можете начинать темы
      Вы не можете отвечать на сообщения
      Вы не можете редактировать свои сообщения
      Вы не можете удалять свои сообщения
      Вы не можете голосовать в опросах
      Вы не можете прикреплять файлы к сообщениям
      Вы можете скачивать файлы