1 сезон

3 сезон

iTunes

1

iTunes

DUB Netflix

iTunes

13

1 сезон

RePack

30

Deluxe

pack

Легкие деньги

ВАЖНО

ИГРА 18+

pack

RePack

MK11

RePack

jed

RePack

fifa19

RePack

RDR2

RePack

NEED FOR SPEED™ PAYBACK

4 сезон

9 сезон

Бесстыжие 9 сезон

Все сериалы

все сериалы на PB.wtf

RePack

FAR CRY 5

Anonymous, добрый вечер, мы не успеваем до 1 числа собрать деньги на оплату серверов, помогите нам пожалуйста в это трудное время. В качестве благодарности мы отключим Вам всю рекламу на сайте (укажите свой ник в строку Ваше имя)!

×
  
Magnet ссылка

Джейми Маркс мёртв / Jamie Marks Is Dead (Картер Смит / Carter Smith) [2014, США, драма, WEB-DLRip, Любительский (одноголосый)[Andi] piratbit.pw

Джейми Маркс мёртв через торрент piratbit.pw

Размер: 1.17 GB | Добавлен: 6 лет 5 мес. назад | Торрент скачан:104 раза
Скачать  

05-01-2015 03:07 Джейми Маркс мёртв Скачать торрент  

Джейми Маркс мёртв / Jamie Marks Is Dead


  • Год выпуска: 2014
  • Страна: США
  • Жанр: драма

  • Продолжительность: 01:41:29
  • Перевод: Любительский (одноголосый)[Andi] по переводу Васильева

  • Режиссер: Картер Смит / Carter Smith
  • В ролях:

    Джуди Грир (Lucy), Лив Тайлер (Linda), Морган Сэйлор (Gracie Highsmith), Камерон Монахэн (Adam McCormick), Ной Сильвер (Jamie Marks), Мэдисен Бити (Frances Wilkinson), Эрин Вильхельми (Susan), Ронен Рубеинштейн (Ronnie), Бретт ДельБуоно (Matt Hardin), Лиззи ДеКлемент (Elizabeth Simms), Надя Александр (Wendy), Ryan Munzert (Aaron McCormick)

  • Описание:
    Зимой в небольшом городке на берегу реки находят тело юного Джейми Маркса. Адам МакКормик, пятнадцатилетний школьник, звезда местной команды по бегу, неожиданно очаровывается Джейми, мальчиком, которого толком даже никто не знал и с кем почти никто не общался.
    Когда призрак Джейми начинает являться Адаму и Грейси, однокласснице, обнаружившей тело, Адам оказывается словно между двух миров.
  • Рейтинг:



  • Качество: WEB-DLRip
  • Формат: :AVI
  • Видео кодек: DivX 5
  • Аудио кодек: AC3
  • Видео: 720x304 (2.35:1), 1199 kbps, 23,976 fps, 0,229 bpp
  • Аудио: 5.1 / 48 kHz / 448 kbps / 16 bit
  • Релиз от: GEKADOL

    Код:

    General
    Complete name                            : I:\Jamie.Marks.Is.Dead_2014.avi
    Format                                   : AVI
    Format/Info                              : Audio Video Interleave
    File size                                : 1.17 GiB
    Duration                                 : 1h 41mn
    Overall bit rate                         : 1 657 Kbps
    Writing application                      : VirtualDubMod 1.5.10.3 | www.virtualdub-fr.org || (build 2550/release)
    Writing library                          : VirtualDubMod build 2550/release

    Video
    ID                                       : 0
    Format                                   : MPEG-4 Visual
    Format profile                           : Advanced Simple@L5
    Format settings, BVOP                    : 1
    Format settings, QPel                    : No
    Format settings, GMC                     : No warppoints
    Format settings, Matrix                  : Default (MPEG)
    Codec ID                                 : DX50
    Codec ID/Hint                            : DivX 5
    Duration                                 : 1h 41mn
    Bit rate                                 : 1 200 Kbps
    Width                                    : 720 pixels
    Height                                   : 304 pixels
    Display aspect ratio                     : 2.35:1
    Frame rate                               : 23.976 fps
    Color space                              : YUV
    Chroma subsampling                       : 4:2:0
    Bit depth                                : 8 bits
    Scan type                                : Progressive
    Compression mode                         : Lossy
    Bits/(Pixel*Frame)                       : 0.229
    Stream size                              : 871 MiB (72%)
    Writing library                          : XviD 1.2.1 (UTC 2008-12-04)

    Audio
    ID                                       : 1
    Format                                   : AC-3
    Format/Info                              : Audio Coding 3
    Mode extension                           : CM (complete main)
    Codec ID                                 : 2000
    Duration                                 : 1h 41mn
    Bit rate mode                            : Constant
    Bit rate                                 : 448 Kbps
    Channel(s)                               : 6 channels
    Channel positions                        : Front: L C R, Side: L R, LFE
    Sampling rate                            : 48.0 KHz
    Bit depth                                : 16 bits
    Compression mode                         : Lossy
    Stream size                              : 325 MiB (27%)
    Alignment                                : Split accross interleaves
    Interleave, duration                     : 42 ms (1.00 video frame)
    Interleave, preload duration             : 500 ms


    Скриншоты:



    piratbit.pw



  • Скачать Джейми Маркс мёртв через торрент http://i68.fastpic.ru/big/2015/0105/f7/1189db664cd41e2159a6aa5d419784f7.jpg Скачать фильм Джейми Маркс мёртв через торрент бесплантно в хорошем качестве Описание: Зимой в небольшом городке на берегу реки находят тело юного Джейми Маркса. Адам МакКормик, пятнадцатилетний школьник, звезда ... 8.7 10 7
    Торрент: Зарегистрирован [2015-01-05 03:07] · скачан: 104 раз
    Статус: √ проверено
    Размер: 1.17 GB
    Как cкачать? Как скачать Джейми Маркс мёртв через торрент | UTorrent

    28-11-2019 20:33  

    Отключить всю рекламу на сайте

      Дорогой пользователь! Огромная просьба, поблагодарите релизера, оцените раздачу и оставьте свои комментарий, если Вы скачали Джейми Маркс мёртв через торрент бесплатно! Внесите свою лепту в развитие PiratBit!
      Комментировать посты могут только пользователи прошедшие не сложную регистрацию
      Показать сообщения:    

      Джейми Маркс мёртв через торрент
      Скачать бесплатно Джейми Маркс мёртв
      Джейми Маркс мёртв скачать торрент
      Джейми Маркс мёртв смотреть онлайн
      Cкачать фильм Джейми Маркс мёртв бесплатно
      Джейми Маркс мёртв скачать торрент в хорошем качестве
      Джейми Маркс мёртв смотреть онлайн бесплатно в хорошем качестве


      Вы не можете начинать темы
      Вы не можете отвечать на сообщения
      Вы не можете редактировать свои сообщения
      Вы не можете удалять свои сообщения
      Вы не можете голосовать в опросах
      Вы не можете прикреплять файлы к сообщениям
      Вы можете скачивать файлы