Ссылка на приватное зеркало нашего сайта всего за 1$. Внимание количество ограничено!!!

2 сезон

iTunes

1 сезон

1

iTunes

iTunes

iTunes

1 сезон

RePack

30

ИГРА 18+

pack

ВАЖНО

!!Акция!!

Alien_RageХит недели

RePack

MK11
pack

Забери бонус

RePack

jed

!!Акция!!

Alien_Rage

RePack

fifa19

RePack

Assassins Creed: Odyssey

RePack

NEED FOR SPEED™ PAYBACK

4 сезон

9 сезон

Бесстыжие 9 сезон

Все сериалы

все сериалы на PB.wtf

RePack

FAR CRY 5
  

Василиса (Антон Сиверс) [2014 г., история, мелодрама, HDRip] piratbit.pw

Василиса через торрент piratbit.pw

Размер: 2.05 GB | Добавлен: 5 лет 8 мес. назад | Торрент скачан:382 раза
Скачать  

03-01-2015 15:29 Василиса Скачать торрент  

Василиса
Год выпуска: 2014
Страна: Россия / Всемирные Русские Студии
Жанр: история, мелодрама
Продолжительность: 01:39:50

Режиссер: Антон Сиверс

В ролях: Светлана Ходченкова, Дмитрий Соломыкин, Жером Кузан, Кристина Кузьмина, Игорь Черневич, Андрей Ильин, Ирина Розанова, Илья Носков, Андрей Носков, Жоанн Морио

Описание: Он дворянин, а она — крепостная крестьянка… Им не суждено быть вместе. Возможно, так и закончилась бы эта любовная история, если бы не ВОЙНА. Наполеон вторгся в пределы Российской Империи, и этот день изменил привычный уклад и сословные предрассудки. Мир больше никогда не станет прежним. Война пишет новую историю любви.

Качество: HDRip
Формат: AVI
Видео кодек: XviD
Аудио кодек: AC3
Видео: 720x400 (1.80:1), 24 fps, XviD build 73 ~2480 kbps avg, 0.36 bit/pixel
Аудио: 48 kHz, AC3 Dolby Digital, 3/2 (L,C,R,l,r) + LFE ch, ~448 kbps











Общее
Полное имя : F:\кино\Василиса.2014.HDRip.avi
Формат : AVI
Формат/Информация : Audio Video Interleave
Профиль формата : OpenDML
Размер файла : 2,05 Гбайт
Продолжительность : 1 ч. 39 м.
Общий поток : 2935 Кбит/сек
Программа кодирования : VirtualDubMod 1.5.10.3 | www.virtualdub-fr.org || (build 2550/release)
Библиотека кодирования : VirtualDubMod build 2550/release

Видео
Идентификатор : 0
Формат : MPEG-4 Visual
Профиль формата : Advanced Simple@L5
Параметр BVOP формата : 2
Параметр QPel формата : Нет
Параметр GMC формата : Без точки перехода
Параметр матрицы формата : Выборочная
Идентификатор кодека : XVID
Идентификатор кодека/Подсказка : XviD
Продолжительность : 1 ч. 39 м.
Битрейт : 2475 Кбит/сек
Ширина : 720 пикселей
Высота : 400 пикселей
Соотношение сторон : 16:9
Частота кадров : 24,000 кадра/сек
Цветовое пространство : YUV
Субдискретизация насыщенности : 4:2:0
Битовая глубина : 8 бит
Тип развёртки : Прогрессивная
Метод сжатия : С потерями
Бит/(Пиксели*Кадры) : 0.358
Размер потока : 1,73 Гбайт (84%)
Библиотека кодирования : XviD 73

Аудио
Идентификатор : 1
Формат : AC-3
Формат/Информация : Audio Coding 3
Расширение режима : CM (complete main)
Параметр Endianness формата : Big
Идентификатор кодека : 2000
Продолжительность : 1 ч. 39 м.
Вид битрейта : Постоянный
Битрейт : 448 Кбит/сек
Каналы : 6 каналов
Расположение каналов : Front: L C R, Side: L R, LFE
Частота : 48,0 КГц
Битовая глубина : 16 бит
Метод сжатия : С потерями
Размер потока : 320 Мбайт (15%)
Выравнивание : Разделение по промежуткам
Продолжительность промежутка : 42 мс. (1,00 видеокадр)
Время предзагрузки промежутка : 500 мс.

piratbit.pw



Скачать Василиса через торрент http://pic.kartinco.top/images/8/237ar.jpg Скачать фильм Василиса через торрент бесплантно в хорошем качестве Описание: Он дворянин, а она — крепостная крестьянка… Им не суждено быть вместе. Возможно, так и закончилась бы эта любовная история, если ... 9.3 10 42
Торрент: Зарегистрирован [2015-01-31 17:02] · скачан: 382 раз
Статус: √ проверено
Размер: 2.05 GB
Как cкачать? Как скачать Василиса через торрент | qTorrent

% Раздел Тема Автор DL S | L
Русское любительское видео [ 1.29 GB ] VasilisaVasilisa - Добротная сексвайф Василиса [2019 Amateur MILF Sexwife Lingrie Stockings Blowjob Cumshot Russian Homemade 1080p] [Pornhub.com] Pir@tya2010 Скачать
2 | 0
Наши мультфильмы [ 296 MB ] Василиса Микулишна [1975 Мультфильм былина DVDRip-AVC] Скорпион1976 Скачать
1 | 0
Детские отечественные фильмы [ 2.32 GB ] Василиса прекрасная [1939 Сказка DVDRip-AVC] Скорпион1976 Скачать
1 | 0
Документальные фильмы и телепередачи [ 9.44 GB ] Клевое место [2009 Документальный рыбалка обучающий познавательный SATRip Оригинальный] Бумер Скачать
1 | 0
Наши сериалы [ 32.24 GB ] Василиса / Сезон 1 / Серии 1-60 из 60 [2017 Россия HDTVRip] GEKADOL Скачать
1 | 0
Русское любительское видео [ 154 MB ] Василиса Дьячкова и Виктор Петрович [2017 Amateur Homemade Russian Anal CamRip] nn99nn Скачать
1 | 0
Наши сериалы [ 2.76 GB ] Василиса Серии: 1-4 из 4 [2014 исторический фильм HDTVRip-AVC] [Расширенная телеверсия] aleksan55 Скачать
1 | 0


Последний раз редактировалось: coc900 (2015-01-31 17:05), всего редактировалось 2 раз(а)

28-11-2019 20:33  

Отключить всю рекламу на сайте

05-01-2015 00:34 Василиса Скачать торрент  

скришоты похожи на фрагменты из дешевой порнушки жанра олд скул)piratbit.pw



07-01-2015 05:54 Василиса Скачать торрент  

А кроме Ходченковой в российском синематографе и актрис то не осталось,видимо? roflpiratbit.pw



08-01-2015 16:39 Василиса Скачать торрент  

operokunp писал(а):

скришоты похожи на фрагменты из дешевой порнушки жанра олд скул)

верно заметил ))piratbit.pw



13-01-2015 09:26 Василиса Скачать торрент  

очень слабый фильмpiratbit.pw



31-01-2015 17:04 Василиса Скачать торрент  

Релиз обновлен!Просьба перекачать торрент файл! piratbit.pw



    Дорогой пользователь! Огромная просьба, поблагодарите релизера, оцените раздачу и оставьте свои комментарий, если Вы скачали Василиса через торрент бесплатно! Внесите свою лепту в развитие PiratBit!
    Комментировать посты могут только пользователи прошедшие не сложную регистрацию
    Показать сообщения:    

    Василиса через торрент
    Скачать бесплатно Василиса
    Василиса скачать торрент
    Василиса смотреть онлайн
    Cкачать фильм Василиса бесплатно
    Василиса скачать торрент в хорошем качестве
    Василиса смотреть онлайн бесплатно в хорошем качестве


    Вы не можете начинать темы
    Вы не можете отвечать на сообщения
    Вы не можете редактировать свои сообщения
    Вы не можете удалять свои сообщения
    Вы не можете голосовать в опросах
    Вы не можете прикреплять файлы к сообщениям
    Вы можете скачивать файлы