Ссылка на приватное зеркало нашего сайта всего за 1$. Внимание количество ограничено!!!

2 сезон

iTunes

1 сезон

1

iTunes

iTunes

iTunes

1 сезон

RePack

30

ИГРА 18+

pack

ВАЖНО

!!Акция!!

Alien_RageХит недели

RePack

MK11
pack

Забери бонус

RePack

jed

!!Акция!!

Alien_Rage

RePack

fifa19

RePack

Assassins Creed: Odyssey

RePack

NEED FOR SPEED™ PAYBACK

4 сезон

9 сезон

Бесстыжие 9 сезон

Все сериалы

все сериалы на PB.wtf

RePack

FAR CRY 5
  

Любит не любит (Клим Шипенко) [2014 г., комедия, WEB-DLRip] piratbit.pw

Любит не любит через торрент piratbit.pw

Размер: 1.46 GB | Добавлен: 5 лет 9 мес. назад | Торрент скачан:1924 раза
Скачать  

02-01-2015 18:32 Любит не любит Скачать торрент  

Любит не любит
Год выпуска: 2014
Страна: Россия / Патриот Продакшнс , Yellow, Black & White
Жанр: комедия
Продолжительность: 01:23:27

Режиссер: Клим Шипенко

В ролях: Максим Матвеев, Светлана Ходченкова, Юрий Колокольников, Любовь Аксенова, Сергей Газаров, Екатерина Васильева, Максим Виторган, Александр Ратников, Никита Панфилов, Олег Комаров

Описание: Леша и Алена вот-вот должны пожениться. И все бы ничего, если бы не знакомство Леши с известной журналисткой Ирой накануне помолвки. Её образ никак не вписывается в рамки привычной для Алексея жизни. Ира вносит хаос в его жизнь, а Алёна — наивная девушка, любит его таким, какой он есть, и мечтает стать его женой.

Авантюризм Иры и ее готовность совершать безумные поступки дают Леше понять, что его жизнь может быть гораздо красочнее. Но готов ли он к авантюрным поступкам, когда на кону счастливое будущее с Аленой?

Качество: WEB-DLRip
Формат: AVI
Видео кодек: XviD
Аудио кодек: AC3
Видео: 720x304 (2.37:1), 24.000 fps, XviD build 50 ~2116 kbps avg, 0.40 bit/pixel
Аудио: 48 kHz, AC3 Dolby Digital, 3/2 (L,C,R,l,r) + LFE ch, ~384 kbps

скриншот   скриншот   скриншот   скриншот   скриншот   скриншот   скриншот   скриншот   скриншот   скриншот  

Общее
Полное имя : F:\кино\Любит не Любит.2014.WEB-DLRip.avi
Формат : AVI
Формат/Информация : Audio Video Interleave
Размер файла : 1,46 Гбайт
Продолжительность : 1 ч. 23 м.
Общий поток : 2510 Кбит/сек
Программа кодирования : VirtualDubMod 1.5.10.3 | www.virtualdub-fr.org || (build 2550/release)
Библиотека кодирования : VirtualDubMod build 2550/release

Видео
Идентификатор : 0
Формат : MPEG-4 Visual
Профиль формата : Advanced Simple@L5
Параметр BVOP формата : 2
Параметр QPel формата : Нет
Параметр GMC формата : Без точки перехода
Параметр матрицы формата : Default (H.263)
Идентификатор кодека : XVID
Идентификатор кодека/Подсказка : XviD
Продолжительность : 1 ч. 23 м.
Битрейт : 2116 Кбит/сек
Ширина : 720 пикселей
Высота : 304 пикселя
Соотношение сторон : 2,35:1
Частота кадров : 24,000 кадра/сек
Цветовое пространство : YUV
Субдискретизация насыщенности : 4:2:0
Битовая глубина : 8 бит
Тип развёртки : Прогрессивная
Метод сжатия : С потерями
Бит/(Пиксели*Кадры) : 0.403
Размер потока : 1,23 Гбайт (84%)
Библиотека кодирования : XviD 1.2.1 (UTC 2008-12-04)

Аудио
Идентификатор : 1
Формат : AC-3
Формат/Информация : Audio Coding 3
Расширение режима : CM (complete main)
Параметр Endianness формата : Big
Идентификатор кодека : 2000
Продолжительность : 1 ч. 23 м.
Вид битрейта : Постоянный
Битрейт : 384 Кбит/сек
Каналы : 6 каналов
Расположение каналов : Front: L C R, Side: L R, LFE
Частота : 48,0 КГц
Битовая глубина : 16 бит
Метод сжатия : С потерями
Размер потока : 229 Мбайт (15%)
Выравнивание : Разделение по промежуткам
Продолжительность промежутка : 42 мс. (1,00 видеокадр)
Время предзагрузки промежутка : 500 мс.

piratbit.pw



Скачать Любит не любит через торрент http://pic.kartinco.top/images/8/n7lvw.jpg Скачать фильм Любит не любит через торрент бесплантно в хорошем качестве Описание: Леша и Алена вот-вот должны пожениться. И все бы ничего, если бы не знакомство Леши с известной журналисткой Ирой накануне ... 9.4 10 25
Торрент: Зарегистрирован [2015-01-02 18:32] · скачан: 1 924 раз
Статус: √ проверено
Размер: 1.46 GB
Как cкачать? Как скачать Любит не любит через торрент | qTorrent

% Раздел Тема Автор DL S | L
Аниме [DVDrip, WEB-DLRip, HDrip] [ 9.22 GB ] Дневник будущего / Mirai Nikki [01 - 26 из 26] [2011 720p WEB-DLRip Любительский ] Sylar Скачать
1 | 0
Порно фильмы с русским переводом [ 692 MB ] Фетиш каждого мужчины #1 / Every Man's Fetish: 18 & Barely Legal [1998 All Sex Teens Threesome Squirt Sex Toys DVDRip Любительский одноголосый] 19alexei87 Скачать
1 | 0
Аниме [HD 720p, 1080p] [ 22.83 GB ] Pokemon: Black and White - Adventures in Unova and Beyond / Покемон: Чёрное и Белое - в Юнове и не только [2012 HDTV 720 Любительский многоголый] Sora Скачать
1 | 0
T Фильмы 2013 (Звук TS, Cam, VO, DVO) [ 1.37 GB ] Ты не можешь убить Стивена Кинга / You Can't Kill Stephen King [2012 HDRip Любительский [DeadSno & den904] Ворон Скачать
1 | 0
Фильмы 2013 (Звук TS, Cam, VO, DVO) [ 1.37 GB ] Канун Дня всех святых / All Hallows' Eve [2013 WEB-DLRip Любительский Ворон Скачать
1 | 0
Discovery [ 39.53 GB ] Выжить любой ценой / Ultimate Survival [2006 Документальный экстремальный DVDRip VO] wolfhound Скачать
1 | 0
T Фильмы 2013 (Звук TS, Cam, VO, DVO) [ 1.46 GB ] Тайное дитя / Tyskungen [2013 Швеция HDRip Любительский Ворон Скачать
1 | 0

28-11-2019 20:33  

Отключить всю рекламу на сайте

02-01-2015 20:21 Любит не любит Скачать торрент  

Очередной Российский высер)piratbit.pw



02-01-2015 20:48 Любит не любит Скачать торрент  

Да уж,что то позитивное-светлое и с качественным юмором никак не получается у наших режиссёров снять.Вот"чёрные" драмы-это завсегда пожалуйста(Балабанов,Сигарёв,Быков...).Обличать себя мы всегда умели-чего проще снять то,что нас и так повседневно окружает:бандиты-менты-чиновники-гопота и т.д.А вот чтобы народ отдохнул да улыбнулся-это неее,разучились.Что лишний раз подтвердил новогодний телеэфир-какой контраст между старыми комедиями СССР и сегодняшними"высерами" а-ля Comedy Club.piratbit.pw



07-01-2015 19:12 Любит не любит Скачать торрент  

Не надо, хороший фильм, с чутка пошлым юмором:)piratbit.pw



    Дорогой пользователь! Огромная просьба, поблагодарите релизера, оцените раздачу и оставьте свои комментарий, если Вы скачали Любит не любит через торрент бесплатно! Внесите свою лепту в развитие PiratBit!
    Комментировать посты могут только пользователи прошедшие не сложную регистрацию
    Показать сообщения:    

    Любит не любит через торрент
    Скачать бесплатно Любит не любит
    Любит не любит скачать торрент
    Любит не любит смотреть онлайн
    Cкачать фильм Любит не любит бесплатно
    Любит не любит скачать торрент в хорошем качестве
    Любит не любит смотреть онлайн бесплатно в хорошем качестве


    Вы не можете начинать темы
    Вы не можете отвечать на сообщения
    Вы не можете редактировать свои сообщения
    Вы не можете удалять свои сообщения
    Вы не можете голосовать в опросах
    Вы не можете прикреплять файлы к сообщениям
    Вы можете скачивать файлы