1 сезон

1 сезон

iTunes

1

КиноПоиск HD

Кинопоиск HD

iTunes

13

1 сезон

RePack

30

Ultimate

ВАЖНО

ИГРА 18+

pack

RePack

MK11
pack

Легкие деньги

RePack

jed

RePack

fifa19

RePack

RDR2

RePack

NEED FOR SPEED™ PAYBACK

4 сезон

9 сезон

Бесстыжие 9 сезон

Все сериалы

все сериалы на PB.wtf

RePack

FAR CRY 5
  
Magnet ссылка

Повелитель иллюзий / Lord of Illusions (Клайв Баркер) [1995, ужасы, триллер, детектив, BDRip 720p] AVO / Режиссёрская версия piratbit.pw

Повелитель иллюзий через торрент piratbit.pw

Размер: 6.24 GB | Добавлен: 6 лет 3 мес. назад | Торрент скачан:96 раз
Скачать  

02-01-2015 12:39 Повелитель иллюзий Скачать торрент  

Повелитель иллюзий / Lord of Illusions

Год выпуска: 1995
Страна: США
Жанр: ужасы, триллер, детектив
Продолжительность: 02:01:34
Перевод: авторский
Субтитры: английские (для слабослышащих)

Режиссёр: Клайв Баркер

В ролях: Скотт Бакула, Кевин Дж. О’Коннор, Фамке Янссен, Винсент Скьявелли, Шила Таузи, Дэниэл фон Барген, Уэйн Грейс, Джозеф Лэтимор, Барбара Патрик, Джордан Мардер

Описание: Заурядное дело, которое расследует частный детектив Гарри, приобретает пугающий оборот, когда он сталкивается с тайной, окружающей всемирно знаменитого мага Филипа Свана и его красавицу жену Доротею. Гарри оказывается втянутым в чудовищный водоворот тайн, обмана и невообразимых ужасов. Иллюзия - трюк, но магия реальна...



Качество: BDRip 720p Сравнение с исходником
Формат: MKV
Видео кодек: H.264
Аудио кодек: AC3
Видео: 5855 Kбит/с, 1280x694, 23.976 кадра/с, 0.275 bpp
Аудио 1: русский, AC3, 448 kbps, 6 ch, 48 kHz [авторский, Андрей Гаврилов]
Аудио 2: русский, AC3, 448 kbps, 6 ch, 48 kHz [авторский, Юрий Живов]
Аудио 3: английский, AC3, 448 kbps, 6 ch, 48 kHz [оригинал]

Имеются неименованные главы/чаптеры.
Сатурн, 1996 год
Номинации (1):
Лучший фильм ужасов
Общее
Уникальный идентификатор : 216516150880909798349808694161867581833 (0xA2E37E6C764EBAC7B15166D11120A989)
Полное имя : D:VideoPovelitel illjuzij.DirCut.1995.BDRip.720p.mkv
Формат : Matroska
Версия формата : Version 4 / Version 2
Размер файла : 6,24 Гбайт
Продолжительность : 2 ч. 1 м.
Общий поток : 7345 Кбит/сек
Дата кодирования : UTC 2015-01-02 11:03:56
Программа кодирования : mkvmerge v7.4.0 ('Circles') 64bit built on Dec 12 2014 12:19:56
Библиотека кодирования : libebml v1.3.0 + libmatroska v1.4.1
DURATION : 01:56:23.810000000
NUMBER_OF_FRAMES : 1251
NUMBER_OF_BYTES : 28542
_STATISTICS_WRITING_APP : mkvmerge v7.4.0 ('Circles') 64bit built on Dec 12 2014 12:19:56
_STATISTICS_WRITING_DATE_UTC : 2015-01-02 11:03:56
_STATISTICS_TAGS : BPS DURATION NUMBER_OF_FRAMES NUMBER_OF_BYTES

Видео
Идентификатор : 1
Формат : AVC
Формат/Информация : Advanced Video Codec
Профиль формата : High@L4.1
Параметр CABAC формата : Да
Параметр ReFrames формата : 9 кадров
Идентификатор кодека : V_MPEG4/ISO/AVC
Продолжительность : 2 ч. 1 м.
Битрейт : 5855 Кбит/сек
Ширина : 1280 пикселей
Высота : 694 пикселя
Соотношение сторон : 1,85:1
Режим частоты кадров : Постоянный
Частота кадров : 23,976 кадра/сек
Цветовое пространство : YUV
Субдискретизация насыщенности : 4:2:0
Битовая глубина : 8 бит
Тип развёртки : Прогрессивная
Бит/(Пиксели*Кадры) : 0.275
Размер потока : 4,97 Гбайт (80%)
Заголовок : BDRip -- STarankov
Библиотека кодирования : x264 core 142 r2431 ac76440
Настройки программы : cabac=1 / ref=9 / deblock=1:-1:-1 / analyse=0x3:0x113 / me=umh / subme=10 / psy=1 / psy_rd=1.00:0.15 / mixed_ref=1 / me_range=32 / chroma_me=1 / trellis=2 / 8x8dct=1 / cqm=0 / deadzone=21,11 / fast_pskip=1 / chroma_qp_offset=-3 / threads=6 / lookahead_threads=1 / sliced_threads=0 / nr=0 / decimate=1 / interlaced=0 / bluray_compat=0 / constrained_intra=0 / bframes=8 / b_pyramid=2 / b_adapt=2 / b_bias=0 / direct=3 / weightb=1 / open_gop=0 / weightp=2 / keyint=230 / keyint_min=23 / scenecut=40 / intra_refresh=0 / rc_lookahead=40 / rc=crf / mbtree=0 / crf=18.0 / qcomp=0.60 / qpmin=0 / qpmax=69 / qpstep=4 / vbv_maxrate=40000 / vbv_bufsize=50000 / crf_max=0.0 / nal_hrd=none / filler=0 / ip_ratio=1.40 / pb_ratio=1.30 / aq=1:1.00
Язык : English
Default : Да
Forced : Нет
DURATION : 02:01:33.870000000
NUMBER_OF_FRAMES : 174878
NUMBER_OF_BYTES : 5469307688
_STATISTICS_WRITING_APP : mkvmerge v7.4.0 ('Circles') 64bit built on Dec 12 2014 12:19:56
_STATISTICS_WRITING_DATE_UTC : 2015-01-02 11:03:56
_STATISTICS_TAGS : BPS DURATION NUMBER_OF_FRAMES NUMBER_OF_BYTES

Аудио #1
Идентификатор : 2
Формат : AC-3
Формат/Информация : Audio Coding 3
Расширение режима : CM (complete main)
Параметр Endianness формата : Big
Идентификатор кодека : A_AC3
Продолжительность : 2 ч. 1 м.
Вид битрейта : Постоянный
Битрейт : 448 Кбит/сек
Каналы : 6 каналов
Расположение каналов : Front: L C R, Side: L R, LFE
Частота : 48,0 КГц
Битовая глубина : 16 бит
Метод сжатия : С потерями
Размер потока : 390 Мбайт (6%)
Заголовок : AVO (Андрей Гаврилов)
Язык : Russian
Default : Да
Forced : Нет

Аудио #2
Идентификатор : 3
Формат : AC-3
Формат/Информация : Audio Coding 3
Расширение режима : CM (complete main)
Параметр Endianness формата : Big
Идентификатор кодека : A_AC3
Продолжительность : 2 ч. 1 м.
Вид битрейта : Постоянный
Битрейт : 448 Кбит/сек
Каналы : 6 каналов
Расположение каналов : Front: L C R, Side: L R, LFE
Частота : 48,0 КГц
Битовая глубина : 16 бит
Метод сжатия : С потерями
Размер потока : 390 Мбайт (6%)
Заголовок : AVO (Юрий Живов)
Язык : Russian
Default : Нет
Forced : Нет

Аудио #3
Идентификатор : 4
Формат : AC-3
Формат/Информация : Audio Coding 3
Расширение режима : CM (complete main)
Параметр Endianness формата : Big
Идентификатор кодека : A_AC3
Продолжительность : 2 ч. 1 м.
Вид битрейта : Постоянный
Битрейт : 448 Кбит/сек
Каналы : 6 каналов
Расположение каналов : Front: L C R, Side: L R, LFE
Частота : 48,0 КГц
Битовая глубина : 16 бит
Метод сжатия : С потерями
Размер потока : 390 Мбайт (6%)
Заголовок : Original
Язык : English
Default : Нет
Forced : Нет

Текст
Идентификатор : 5
Формат : UTF-8
Идентификатор кодека : S_TEXT/UTF8
Идентификатор кодека/Информация : UTF-8 Plain Text
Заголовок : английский (для слабослышащих)
Язык : English
Default : Нет
Forced : Нет

Меню
00:00:00.000 : :Chapter 01
00:13:56.252 : :Chapter 02
00:28:25.286 : :Chapter 03
00:44:10.731 : :Chapter 04
00:59:55.383 : :Chapter 05
01:17:09.249 : :Chapter 06
01:33:42.241 : :Chapter 07
01:57:03.975 : :Chapter 08
piratbit.pw



Скачать Повелитель иллюзий через торрент http://i67.fastpic.ru/big/2015/0102/ef/312a0485e65e5f629416ec3443f8d0ef.jpg Скачать фильм Повелитель иллюзий через торрент бесплантно в хорошем качестве Описание: Заурядное дело, которое расследует частный детектив Гарри, приобретает пугающий оборот, когда он сталкивается с тайной, ... 8.3 10 10
Торрент: Зарегистрирован [2015-01-02 12:39] · скачан: 96 раз
Статус: √ проверено
Размер: 6.24 GB
Как cкачать? Как скачать Повелитель иллюзий через торрент | UTorrent

% Раздел Тема Автор DL S | L
Фильмы [HD 720p, 1080p] (Хороший звук DUB, MVO) [ 16.85 GB ] Повелитель иллюзий / Lord of Illusions [1995 BDRip 1080p by msltel] DUB MVO DVO 3 x AVO | Режиссёрская версия msltel Скачать
1 | 0
Фильмы [HD 720p, 1080p] (Хороший звук DUB, MVO) [ 6.86 GB ] Повелитель иллюзий / Lord of Illusions [1995 BDRip 720p by msltel] DUB MVO DVO 3 x AVO | Режиссёрская версия msltel Скачать
1 | 0
Фильмы с авторской озвучкой [ 14.73 GB ] Повелитель иллюзий / Lord of Illusions [1995 BDRip 1080p] AVO / Режиссёрская версия msltel Скачать
1 | 0

28-11-2019 20:33  

Отключить всю рекламу на сайте

02-01-2015 14:41 Повелитель иллюзий Скачать торрент  

хороший фильмец вспоминаюpiratbit.pw



    Дорогой пользователь! Огромная просьба, поблагодарите релизера, оцените раздачу и оставьте свои комментарий, если Вы скачали Повелитель иллюзий через торрент бесплатно! Внесите свою лепту в развитие PiratBit!
    Комментировать посты могут только пользователи прошедшие не сложную регистрацию
    Показать сообщения:    

    Повелитель иллюзий через торрент
    Скачать бесплатно Повелитель иллюзий
    Повелитель иллюзий скачать торрент
    Повелитель иллюзий смотреть онлайн
    Cкачать фильм Повелитель иллюзий бесплатно
    Повелитель иллюзий скачать торрент в хорошем качестве
    Повелитель иллюзий смотреть онлайн бесплатно в хорошем качестве


    Вы не можете начинать темы
    Вы не можете отвечать на сообщения
    Вы не можете редактировать свои сообщения
    Вы не можете удалять свои сообщения
    Вы не можете голосовать в опросах
    Вы не можете прикреплять файлы к сообщениям
    Вы можете скачивать файлы