Ссылка на приватное зеркало нашего сайта всего за 1$. Внимание количество ограничено!!!

2 сезон

iTunes

iTunes

1

iTunes

iTunes

iTunes

WEBRip

iTunes

30
pack

Вам бонус

ВАЖНО

!!Акция!!

Alien_RageХит недели

RePack

Horizon Zero Dawn

ИГРА 18+

pack

RePack

jed

!!Акция!!

Alien_Rage

RePack

fifa19

RePack

Assassins Creed: Odyssey

RePack

NEED FOR SPEED™ PAYBACK

4 сезон

9 сезон

Бесстыжие 9 сезон

Все сериалы

все сериалы на PB.wtf

RePack

FAR CRY 5
  

Любит не любит (Клим Шипенко) [2014 г., комедия, WEB-DL 720p] piratbit.pw

Любит не любит через торрент piratbit.pw

Размер: 2.59 GB | Добавлен: 5 лет 8 мес. назад | Торрент скачан:758 раз
Скачать  

01-01-2015 11:47 Любит не любит Скачать торрент  

Любит не любит
Год выпуска: 2014
Страна: Россия
Жанр: комедия
Продолжительность: 01:23:27

Режиссер: Клим Шипенко
Продюссер: Эдуард Илоян, Виталий Шляппо, Денис Жалинский
Сценарий: Клим Шипенко
Бюджет: $2 342 423
Премьера в мире: 4 декабря 2014



В ролях: Максим Матвеев, Светлана Ходченкова, Юрий Колокольников, Любовь Аксенова, Сергей Газаров, Екатерина Васильева, Максим Виторган, Александр Ратников, Никита Панфилов, Олег Комаров

Описание: Леша и Алена вот-вот должны пожениться. И все бы ничего, если бы не знакомство Леши с известной журналисткой Ирой накануне помолвки. Её образ никак не вписывается в рамки привычной для Алексея жизни. Ира вносит хаос в его жизнь, а Алёна — наивная девушка, любит его таким, какой он есть, и мечтает стать его женой.Авантюризм Иры и ее готовность совершать безумные поступки дают Леше понять, что его жизнь может быть гораздо красочнее. Но готов ли он к авантюрным поступкам, когда на кону счастливое будущее с Аленой?

Доп. информация: Сохранены оригинальные чаптеры.

Качество: WEB-DL 720p
Формат: MKV
Видео кодек: AVC
Аудио кодек: AC3
Видео: 1280x538 at 24.000 fps (True24p), MPEG-4 AVC, ~4000 kbps avg
Аудио: Russian: 48 kHz, AC3, 3/2 (L,C,R,l,r) + LFE ch, ~384.00 kbps avg
General
Unique ID : 220320656655157198748231786853138863612 (0xA5C0370A5DB2399FB065A4F6D1E295FC)
Complete name : /home/sb1855/files/Lyubit.ne.lyubit.2014.720p.WEB-DL.Rus.HDCLUB.mkv
Format : Matroska
Format version : Version 2
File size : 2.59 GiB
Duration : 1h 23mn
Overall bit rate : 4 439 Kbps
Movie name : Lyubit ne lyubit (2014) - Release for HDCLUB
Encoded date : UTC 2014-12-31 21:10:08
Writing application : mkvmerge v3.4.0 ('Rapunzel') built on May 15 2010 09:38:20
Writing library : libebml v0.8.0 + libmatroska v0.9.0

Video
ID : 1
Format : AVC
Format/Info : Advanced Video Codec
Format profile : Main@L3.1
Format settings, CABAC : No
Format settings, ReFrames : 2 frames
Codec ID : V_MPEG4/ISO/AVC
Duration : 1h 23mn
Bit rate : 3 966 Kbps
Width : 1 280 pixels
Height : 538 pixels
Display aspect ratio : 2.40:1
Frame rate : 24.000 fps
Color space : YUV
Chroma subsampling : 4:2:0
Bit depth : 8 bits
Scan type : Progressive
Bits/(Pixel*Frame) : 0.240
Stream size : 2.31 GiB (89%)
Title : Lyubit ne lyubit (2014) - Release for HDCLUB
Language : Russian
Default : Yes
Forced : No
Color primaries : BT.709-5, BT.1361, IEC 61966-2-4, SMPTE RP177
Transfer characteristics : BT.709-5, BT.1361
Matrix coefficients : BT.709-5, BT.1361, IEC 61966-2-4 709, SMPTE RP177

Audio
ID : 2
Format : AC-3
Format/Info : Audio Coding 3
Mode extension : CM (complete main)
Format settings, Endianness : Big
Codec ID : A_AC3
Duration : 1h 23mn
Bit rate mode : Constant
Bit rate : 384 Kbps
Channel(s) : 6 channels
Channel positions : Front: L C R, Side: L R, LFE
Sampling rate : 48.0 KHz
Bit depth : 16 bits
Compression mode : Lossy
Stream size : 229 MiB (9%)
Title : AC3 5.1 @ 384 kbps
Language : Russian
Default : Yes
Forced : No

Menu
00:00:00.000 : ru:?????????? 1
00:04:52.000 : ru:?????????? 2
00:10:34.000 : ru:?????????? 3
00:14:36.000 : ru:?????????? 4
00:19:33.000 : ru:?????????? 5
00:24:56.000 : ru:?????????? 6
00:30:02.000 : ru:?????????? 7
00:34:42.000 : ru:?????????? 8
00:39:25.000 : ru:?????????? 9
00:45:33.000 : ru:?????????? 10
00:50:48.000 : ru:?????????? 11
00:55:13.000 : ru:?????????? 12
00:59:40.000 : ru:?????????? 13
01:04:35.000 : ru:?????????? 14
01:09:54.000 : ru:?????????? 15
01:14:40.000 : ru:?????????? 16
01:18:55.000 : ru:?????????? 17
скриншот   скриншот   скриншот  piratbit.pw



Скачать Любит не любит через торрент http://pic.kartinco.top/images/8/yn3le.jpg Скачать фильм Любит не любит через торрент бесплантно в хорошем качестве Описание: Леша и Алена вот-вот должны пожениться. И все бы ничего, если бы не знакомство Леши с известной журналисткой Ирой накануне ... 9.9 10 11
Торрент: Зарегистрирован [2015-01-01 11:47] · скачан: 758 раз
Статус: T временная
Размер: 2.59 GB
Как cкачать? Как скачать Любит не любит через торрент | qTorrent

% Раздел Тема Автор DL S | L
Аниме [DVDrip, WEB-DLRip, HDrip] [ 9.22 GB ] Дневник будущего / Mirai Nikki [01 - 26 из 26] [2011 720p WEB-DLRip Любительский ] Sylar Скачать
1 | 0
Порно фильмы с русским переводом [ 692 MB ] Фетиш каждого мужчины #1 / Every Man's Fetish: 18 & Barely Legal [1998 All Sex Teens Threesome Squirt Sex Toys DVDRip Любительский одноголосый] 19alexei87 Скачать
1 | 0
Аниме [HD 720p, 1080p] [ 22.83 GB ] Pokemon: Black and White - Adventures in Unova and Beyond / Покемон: Чёрное и Белое - в Юнове и не только [2012 HDTV 720 Любительский многоголый] Sora Скачать
1 | 0
T Фильмы 2013 (Звук TS, Cam, VO, DVO) [ 1.37 GB ] Ты не можешь убить Стивена Кинга / You Can't Kill Stephen King [2012 HDRip Любительский [DeadSno & den904] Ворон Скачать
1 | 0
Фильмы 2013 (Звук TS, Cam, VO, DVO) [ 1.37 GB ] Канун Дня всех святых / All Hallows' Eve [2013 WEB-DLRip Любительский Ворон Скачать
1 | 0
Discovery [ 39.53 GB ] Выжить любой ценой / Ultimate Survival [2006 Документальный экстремальный DVDRip VO] wolfhound Скачать
1 | 0
T Фильмы 2013 (Звук TS, Cam, VO, DVO) [ 1.46 GB ] Тайное дитя / Tyskungen [2013 Швеция HDRip Любительский Ворон Скачать
1 | 0

28-11-2019 20:33  

Отключить всю рекламу на сайте

01-01-2015 13:10 Любит не любит Скачать торрент  

ох епик феил увидил названия подумал щя ещё помашка на постере будет ... зашел , а тут...piratbit.pw



01-01-2015 14:03 Любит не любит Скачать торрент  

супруга в восторге-спасибоpiratbit.pw



02-01-2015 08:45 Любит не любит Скачать торрент  

и тут Ходченкова piratbit.pw



04-01-2015 12:02 Любит не любит Скачать торрент  

Подгон сделан=)piratbit.pw



    Дорогой пользователь! Огромная просьба, поблагодарите релизера, оцените раздачу и оставьте свои комментарий, если Вы скачали Любит не любит через торрент бесплатно! Внесите свою лепту в развитие PiratBit!
    Комментировать посты могут только пользователи прошедшие не сложную регистрацию
    Показать сообщения:    

    Любит не любит через торрент
    Скачать бесплатно Любит не любит
    Любит не любит скачать торрент
    Любит не любит смотреть онлайн
    Cкачать фильм Любит не любит бесплатно
    Любит не любит скачать торрент в хорошем качестве
    Любит не любит смотреть онлайн бесплатно в хорошем качестве


    Вы не можете начинать темы
    Вы не можете отвечать на сообщения
    Вы не можете редактировать свои сообщения
    Вы не можете удалять свои сообщения
    Вы не можете голосовать в опросах
    Вы не можете прикреплять файлы к сообщениям
    Вы можете скачивать файлы