Ссылка на приватное зеркало нашего сайта всего за 1$. Внимание количество ограничено!!!

2 сезон

iTunes

1 сезон

1

iTunes

iTunes

iTunes

1 сезон

RePack

30

ИГРА 18+

pack

ВАЖНО

!!Акция!!

Alien_RageХит недели

RePack

MK11
pack

Забери бонус

RePack

jed

!!Акция!!

Alien_Rage

RePack

fifa19

RePack

Assassins Creed: Odyssey

RePack

NEED FOR SPEED™ PAYBACK

4 сезон

9 сезон

Бесстыжие 9 сезон

Все сериалы

все сериалы на PB.wtf

RePack

FAR CRY 5
  

Золотая невеста (Роман Барабаш) [2014, Россия, комедия, SATRip) piratbit.pw

Золотая невеста через торрент piratbit.pw

Размер: 1.24 GB | Добавлен: 5 лет 9 мес. назад | Торрент скачан:1348 раз
Скачать  

31-12-2014 10:02 Золотая невеста Скачать торрент  

Золотая невеста


  • Год выпуска: 2014
  • Страна: Россия
  • Жанр: комедия
  • Продолжительность: 01:28:30
  • Перевод: Не требуется

  • Режиссер: Роман Барабаш
  • В ролях:

    Юлия Гришина (Галя), Глафира Тарханова, Александр Ратников, Олег Масленников-Войтов, Виталий Альшанский, Анастасия Пронина, Вадим Александров, Ирина Домнинская, Алёна Проданова

  • Описание:
    Деревенские старик со старухой берутся выдать замуж городскую племянницу, засидевшуюся в девках, когда та приезжает погостить на новогодние каникулы. Чтобы привлечь интерес к её неказистой персоне, оборотистая бабка без ведома племяшки распускает слух, будто Надя - вдова-миллионерша, и скоро получит наследство от умершего мужа-бизнесмена.
    У каждого из объявившихся женихов свои планы на Надино «наследство». Журналист Долгобродов хочет сделать сенсационный материал о вдове знаменитого миллионера, которая почему-то прячется в деревне. Он пытается на волне этой сенсации получить работу в Москве. Художник Тимофей, выбрав в спутницы жизни богатую вдову, хочет добиться мировой славы. Стареющему ловеласу Кулькову всего-то и нужно от Нади, что денег на починку избы. При этом каждый из кандидатов считает Надю скучной серой мышкой. И только после того, как она влюбляется по-настоящему и преображается, женихи понимают, что проворонили настоящее сокровище. Корыстные помыслы сменяются искренней симпатией, и когда выясняется, что никакого наследства нет и в помине, многие по-прежнему не прочь предложить ей руку и сердце.
  • Рейтинг:



  • Качество: SATRip
  • Формат: :AVI
  • Видео кодек: XviD
  • Аудио кодек: AC3
  • Видео: 720x400 (16:9), 1799 kbps, 25 fps, 0,250 bpp
  • Аудио: 2.0 / 48 kHz / 192 kbps / 16 bit
  • Релиз от: GEKADOL

    Код:

    General
    Complete name                            : I:\Zolotaya.Nevesta.SATRip.avi
    Format                                   : AVI
    Format/Info                              : Audio Video Interleave
    File size                                : 1.24 GiB
    Duration                                 : 1h 28mn
    Overall bit rate                         : 2 001 Kbps
    Writing application                      : VirtualDubMod 1.5.10.3 | www.virtualdub-fr.org || (build 2550/release)
    Writing library                          : VirtualDub build 35491/release

    Video
    ID                                       : 0
    Format                                   : MPEG-4 Visual
    Format profile                           : Advanced Simple@L5
    Format settings, BVOP                    : 2
    Format settings, QPel                    : No
    Format settings, GMC                     : No warppoints
    Format settings, Matrix                  : Default (H.263)
    Codec ID                                 : XVID
    Codec ID/Hint                            : XviD
    Duration                                 : 1h 28mn
    Bit rate                                 : 1 800 Kbps
    Width                                    : 720 pixels
    Height                                   : 400 pixels
    Display aspect ratio                     : 16:9
    Frame rate                               : 25.000 fps
    Color space                              : YUV
    Chroma subsampling                       : 4:2:0
    Bit depth                                : 8 bits
    Scan type                                : Progressive
    Compression mode                         : Lossy
    Bits/(Pixel*Frame)                       : 0.250
    Stream size                              : 1.11 GiB (90%)
    Writing library                          : XviD 1.2.1 (UTC 2008-12-04)

    Audio
    ID                                       : 1
    Format                                   : AC-3
    Format/Info                              : Audio Coding 3
    Mode extension                           : CM (complete main)
    Codec ID                                 : 2000
    Duration                                 : 1h 28mn
    Bit rate mode                            : Constant
    Bit rate                                 : 192 Kbps
    Channel(s)                               : 2 channels
    Channel positions                        : Front: L R
    Sampling rate                            : 48.0 KHz
    Bit depth                                : 16 bits
    Compression mode                         : Lossy
    Stream size                              : 122 MiB (10%)
    Alignment                                : Split accross interleaves
    Interleave, duration                     : 40 ms (1.00 video frame)
    Interleave, preload duration             : 500 ms


    Скриншоты:



    piratbit.pw



  • Скачать Золотая невеста через торрент http://i66.fastpic.ru/big/2014/1231/8e/90c237dc040b6ec5bfd9a341f48afd8e.jpg Скачать фильм Золотая невеста через торрент бесплантно в хорошем качестве Описание: Деревенские старик со старухой берутся выдать замуж городскую племянницу, засидевшуюся в девках, когда та приезжает погостить на ... 9 10 24
    Торрент: Зарегистрирован [2014-12-31 10:02] · скачан: 1 348 раз
    Статус: √ проверено
    Размер: 1.24 GB
    Как cкачать? Как скачать Золотая невеста через торрент | qTorrent

    % Раздел Тема Автор DL S | L
    T Наши фильмы (HD, WEB-DL 720p, 1080p) [ 2.43 GB ] Золотая невеста [2014 HDTVRip 720p] Ворон Скачать
    1 | 0

    28-11-2019 20:33  

    Отключить всю рекламу на сайте

    31-12-2014 12:24 Золотая невеста Скачать торрент  

    первая на фото рыжая тварьpiratbit.pw



      Дорогой пользователь! Огромная просьба, поблагодарите релизера, оцените раздачу и оставьте свои комментарий, если Вы скачали Золотая невеста через торрент бесплатно! Внесите свою лепту в развитие PiratBit!
      Комментировать посты могут только пользователи прошедшие не сложную регистрацию
      Показать сообщения:    

      Золотая невеста через торрент
      Скачать бесплатно Золотая невеста
      Золотая невеста скачать торрент
      Золотая невеста смотреть онлайн
      Cкачать фильм Золотая невеста бесплатно
      Золотая невеста скачать торрент в хорошем качестве
      Золотая невеста смотреть онлайн бесплатно в хорошем качестве


      Вы не можете начинать темы
      Вы не можете отвечать на сообщения
      Вы не можете редактировать свои сообщения
      Вы не можете удалять свои сообщения
      Вы не можете голосовать в опросах
      Вы не можете прикреплять файлы к сообщениям
      Вы можете скачивать файлы