1 сезон

3 сезон

iTunes

1

iTunes

DUB Netflix

iTunes

13

1 сезон

RePack

30

Deluxe

pack

Легкие деньги

ВАЖНО

ИГРА 18+

pack

RePack

MK11

RePack

jed

RePack

fifa19

RePack

RDR2

RePack

NEED FOR SPEED™ PAYBACK

4 сезон

9 сезон

Бесстыжие 9 сезон

Все сериалы

все сериалы на PB.wtf

RePack

FAR CRY 5

Anonymous, добрый вечер, мы не успеваем до 1 числа собрать деньги на оплату серверов, помогите нам пожалуйста в это трудное время. В качестве благодарности мы отключим Вам всю рекламу на сайте (укажите свой ник в строку Ваше имя)!

×
  
Magnet ссылка

Босс в гостиной / Un boss in salotto (Лука Миньеро / Luca Miniero) [2014, Италия, комедия, DVDRip) VO [Игорь Головин] piratbit.pw

Босс в гостиной через торрент piratbit.pw

Размер: 1.45 GB | Добавлен: 6 лет 5 мес. назад | Торрент скачан:212 раз
Скачать  

31-12-2014 01:20 Босс в гостиной Скачать торрент  

Босс в гостиной / Un boss in salotto


  • Год выпуска: 2014
  • Страна: Италия
  • Жанр: комедия
  • Продолжительность: 01:42:05
  • Перевод: Любительский (одноголосый)[Игорь Головин] - по переводу [ladySpais]

  • Режиссер: Лука Миньеро / Luca Miniero
  • В ролях:

    Паола Кортеллези (Carmela Cristina D'Avola), Рокко Папалео (Ciro Cimmaruta), Лука Арджентеро (Michele Coso), Анджела Финоккьяро (Doriana Manetti), Але (Carlo Manetti), Франц (Bidello), Массимо Де Лоренцо (L'Ispettore), Marco Marzocca (Poliziotto), Saul Nanni (Vittorio Coso), Lavinia De' Cocci (Fortuna Coso), Сальваторе Мистиконе, Antonella Arseni

  • Описание:
    Кристина успешный врач-трансплантолог, живущий в небольшом городке на севере Италии. Ей удалось построить идеальную семью с мужем Микеле и двумя прекрасными детьми.
    Однажды после звонка в полицейский участок Кристина узнаёт, что её брат замешан в крупном процессе над мафией. Брат, которого, она не видела 15 лет, просит провести некоторое время под домашним арестом в её доме. Через силу Кристина даёт своё согласие. Все планы и привычная рутина семьи пойдут кувырком после появления в ней не приученного к хорошим манерам всего в татуировках и золотых цепях дядюшки Чиро.
  • Рейтинг:



  • Качество: DVDRip
  • Формат: :AVI
  • Видео кодек: XviD
  • Аудио кодек: AC3
  • Видео: 720x304 (2.35:1), 1802 kbps, 23,976 fps, 0,344 bpp
  • Аудио: 2.0 / 48 kHz / 224 kbps / 16 bit
  • Релиз от: GEKADOL

    Код:

    General
    Complete name                            : I:\Un boss in salotto (2014) DVDRip.avi
    Format                                   : AVI
    Format/Info                              : Audio Video Interleave
    Format profile                           : OpenDML
    Format settings                          : rec
    File size                                : 1.45 GiB
    Duration                                 : 1h 42mn
    Overall bit rate                         : 2 032 Kbps
    Writing application                      : AVI-Mux GUI 1.17.8.3, Feb 16 201019:42:50

    Video
    ID                                       : 0
    Format                                   : MPEG-4 Visual
    Format profile                           : Advanced Simple@L5
    Format settings, BVOP                    : No
    Format settings, QPel                    : No
    Format settings, GMC                     : No warppoints
    Format settings, Matrix                  : Default (MPEG)
    Codec ID                                 : XVID
    Codec ID/Hint                            : XviD
    Duration                                 : 1h 42mn
    Bit rate                                 : 1 803 Kbps
    Width                                    : 720 pixels
    Height                                   : 304 pixels
    Display aspect ratio                     : 2.35:1
    Frame rate                               : 23.976 fps
    Color space                              : YUV
    Chroma subsampling                       : 4:2:0
    Bit depth                                : 8 bits
    Scan type                                : Progressive
    Compression mode                         : Lossy
    Bits/(Pixel*Frame)                       : 0.344
    Stream size                              : 1.29 GiB (89%)
    Writing library                          : XviD 62

    Audio
    ID                                       : 1
    Format                                   : AC-3
    Format/Info                              : Audio Coding 3
    Mode extension                           : CM (complete main)
    Codec ID                                 : 2000
    Duration                                 : 1h 42mn
    Bit rate mode                            : Constant
    Bit rate                                 : 224 Kbps
    Channel(s)                               : 2 channels
    Channel positions                        : Front: L R
    Sampling rate                            : 48.0 KHz
    Bit depth                                : 16 bits
    Compression mode                         : Lossy
    Stream size                              : 164 MiB (11%)
    Alignment                                : Aligned on interleaves
    Interleave, duration                     : 64 ms (1.53 video frames)
    Interleave, preload duration             : 192 ms
    Title                                    : Rus_163




    Скриншоты:



    piratbit.pw



  • Скачать Босс в гостиной через торрент http://i66.fastpic.ru/big/2014/1231/4b/d7f61133bf0467d83202dae4c7ae154b.jpg Скачать фильм Босс в гостиной через торрент бесплантно в хорошем качестве Описание: Кристина успешный врач-трансплантолог, живущий в небольшом городке на севере Италии. Ей удалось построить идеальную семью с мужем ... 9.3 10 7
    Торрент: Зарегистрирован [2014-12-31 01:20] · скачан: 212 раз
    Статус: T временная
    Размер: 1.45 GB
    Как cкачать? Как скачать Босс в гостиной через торрент | UTorrent

    28-11-2019 20:33  

    Отключить всю рекламу на сайте

      Дорогой пользователь! Огромная просьба, поблагодарите релизера, оцените раздачу и оставьте свои комментарий, если Вы скачали Босс в гостиной через торрент бесплатно! Внесите свою лепту в развитие PiratBit!
      Комментировать посты могут только пользователи прошедшие не сложную регистрацию
      Показать сообщения:    

      Босс в гостиной через торрент
      Скачать бесплатно Босс в гостиной
      Босс в гостиной скачать торрент
      Босс в гостиной смотреть онлайн
      Cкачать фильм Босс в гостиной бесплатно
      Босс в гостиной скачать торрент в хорошем качестве
      Босс в гостиной смотреть онлайн бесплатно в хорошем качестве


      Вы не можете начинать темы
      Вы не можете отвечать на сообщения
      Вы не можете редактировать свои сообщения
      Вы не можете удалять свои сообщения
      Вы не можете голосовать в опросах
      Вы не можете прикреплять файлы к сообщениям
      Вы можете скачивать файлы