Ссылка на приватное зеркало нашего сайта всего за 1$. Внимание количество ограничено!!!

2 сезон

iTunes

1 сезон

1

iTunes

iTunes

iTunes

1 сезон

RePack

30

ИГРА 18+

pack

ВАЖНО

!!Акция!!

Alien_RageХит недели

RePack

MK11
pack

Забери бонус

RePack

jed

!!Акция!!

Alien_Rage

RePack

fifa19

RePack

Assassins Creed: Odyssey

RePack

NEED FOR SPEED™ PAYBACK

4 сезон

9 сезон

Бесстыжие 9 сезон

Все сериалы

все сериалы на PB.wtf

RePack

FAR CRY 5
  

Свадьбы не будет (Игорь Войтулевич) [2014, Россия, мелодрама, SATRip) piratbit.pw

Свадьбы не будет через торрент piratbit.pw

Размер: 1.36 GB | Добавлен: 5 лет 9 мес. назад | Торрент скачан:630 раз
Скачать  

27-12-2014 10:36 Свадьбы не будет Скачать торрент  

Свадьбы не будет


  • Год выпуска: 2014
  • Страна: Россия
  • Жанр: мелодрама
  • Продолжительность: 01:31:43
  • Перевод: Не требуется

  • Режиссер: Игорь Войтулевич
  • В ролях:

    Анна Ардова, Эвелина Блёданс, Ян Ильвес, Варвара Бородина, Иван Лапин, Александра Мельник (Ася), Андрей Москвичев (Пётр), Ирина Антоненко

  • Описание:
    Надя и Артем решили пожениться, но их мамы в ужасе от выбора своих чад. Открытая война? Нет, это только подхлестнет детей к совершению роковой ошибки. Нужно срочно объединить усилия. Неужели будущие теща и свекровь не смогут расстроить свадьбу? В ход идут все запрещенные приемы. Выстоит ли настоящая любовь против материнских интриг?
  • Рейтинг:



  • Качество: SATRip
  • Формат: :AVI
  • Видео кодек: DivX 5
  • Аудио кодек: MP3
  • Видео: 720x400 (16:9), 1984 kbps, 25 fps, 0,276 bpp
  • Аудио: 2.0 / 48 kHz / 128 kbps
  • Релиз от: GEKADOL

    Код:

    General
    Complete name                            : I:\Svadjby.ne.budet.avi
    Format                                   : AVI
    Format/Info                              : Audio Video Interleave
    Format profile                           : OpenDML
    File size                                : 1.36 GiB
    Duration                                 : 1h 31mn
    Overall bit rate                         : 2 130 Kbps

    Video
    ID                                       : 0
    Format                                   : MPEG-4 Visual
    Format settings, BVOP                    : Yes
    Format settings, QPel                    : No
    Format settings, GMC                     : No warppoints
    Format settings, Matrix                  : Default (H.263)
    Codec ID                                 : DX50
    Codec ID/Hint                            : DivX 5
    Duration                                 : 1h 31mn
    Bit rate                                 : 1 985 Kbps
    Width                                    : 720 pixels
    Height                                   : 400 pixels
    Display aspect ratio                     : 16:9
    Frame rate                               : 25.000 fps
    Color space                              : YUV
    Chroma subsampling                       : 4:2:0
    Bit depth                                : 8 bits
    Scan type                                : Progressive
    Compression mode                         : Lossy
    Bits/(Pixel*Frame)                       : 0.276
    Stream size                              : 1.27 GiB (93%)
    Writing library                          : Intel(R) MPEG-4 encoder based on Intel(R) IPP 6.1 build 137.20[6.1.137.763]

    Audio
    ID                                       : 1
    Format                                   : MPEG Audio
    Format version                           : Version 1
    Format profile                           : Layer 3
    Mode                                     : Joint stereo
    Mode extension                           : MS Stereo
    Codec ID                                 : 55
    Codec ID/Hint                            : MP3
    Duration                                 : 1h 31mn
    Bit rate mode                            : Constant
    Bit rate                                 : 128 Kbps
    Channel(s)                               : 2 channels
    Sampling rate                            : 48.0 KHz
    Compression mode                         : Lossy
    Stream size                              : 84.0 MiB (6%)
    Alignment                                : Aligned on interleaves
    Interleave, duration                     : 24 ms (0.60 video frame)
    Writing library                          : LAME3.98.2


    Скриншоты:



    piratbit.pw



  • Скачать Свадьбы не будет через торрент http://i65.fastpic.ru/big/2014/1227/28/06fb9ddc25c6ae2705bd93073e57a928.jpg Скачать фильм Свадьбы не будет через торрент бесплантно в хорошем качестве Описание: Надя и Артем решили пожениться, но их мамы в ужасе от выбора своих чад. Открытая война? Нет, это только подхлестнет детей к ... 8.5 10 17
    Торрент: Зарегистрирован [2014-12-27 10:36] · скачан: 630 раз
    Статус: √ проверено
    Размер: 1.36 GB
    Как cкачать? Как скачать Свадьбы не будет через торрент | qTorrent

    28-11-2019 20:33  

    Отключить всю рекламу на сайте

    27-12-2014 12:04 Свадьбы не будет Скачать торрент  

    Что за мода пошла, извините, такой шлак тв-шный выкидывать?piratbit.pw



    27-12-2014 12:26 Свадьбы не будет Скачать торрент  

    так сам то положи или создай, а писать все могутpiratbit.pw



    28-12-2014 20:39 Свадьбы не будет Скачать торрент  

    z9751a писал(а):

    так сам то положи или создай, а писать все могут

    Согласен) yes
    Ну фильм-то наверное баллов на 6 из 10 и это скорее всего в лучшем случае...
    Но если бы я снимал, то снял бы хуже roflpiratbit.pw



      Дорогой пользователь! Огромная просьба, поблагодарите релизера, оцените раздачу и оставьте свои комментарий, если Вы скачали Свадьбы не будет через торрент бесплатно! Внесите свою лепту в развитие PiratBit!
      Комментировать посты могут только пользователи прошедшие не сложную регистрацию
      Показать сообщения:    

      Свадьбы не будет через торрент
      Скачать бесплатно Свадьбы не будет
      Свадьбы не будет скачать торрент
      Свадьбы не будет смотреть онлайн
      Cкачать фильм Свадьбы не будет бесплатно
      Свадьбы не будет скачать торрент в хорошем качестве
      Свадьбы не будет смотреть онлайн бесплатно в хорошем качестве


      Вы не можете начинать темы
      Вы не можете отвечать на сообщения
      Вы не можете редактировать свои сообщения
      Вы не можете удалять свои сообщения
      Вы не можете голосовать в опросах
      Вы не можете прикреплять файлы к сообщениям
      Вы можете скачивать файлы