Ссылка на приватное зеркало нашего сайта всего за 1$. Внимание количество ограничено!!!

2 сезон

iTunes

1 сезон

1

iTunes

iTunes

iTunes

1 сезон

RePack

30

ИГРА 18+

pack

ВАЖНО

!!Акция!!

Alien_RageХит недели

RePack

MK11
pack

Забери бонус

RePack

jed

!!Акция!!

Alien_Rage

RePack

fifa19

RePack

Assassins Creed: Odyssey

RePack

NEED FOR SPEED™ PAYBACK

4 сезон

9 сезон

Бесстыжие 9 сезон

Все сериалы

все сериалы на PB.wtf

RePack

FAR CRY 5
  

Отцовский инстинкт/ Апостол (Алексей Волов) [2014 г., Боевик, криминал, WEB-DLRip] piratbit.pw

Отцовский инстинкт через торрент piratbit.pw

Размер: 1.36 GB | Добавлен: 5 лет 9 мес. назад | Торрент скачан:1492 раза
Скачать  

26-12-2014 10:27 Отцовский инстинкт Скачать торрент  

Отцовский инстинкт/ Апостол
Год выпуска: 2014
Страна: Россия
Жанр: Боевик, криминал
Продолжительность: 01:32:02

Режиссер: Алексей Волов

В ролях: Анатолий Узденский, Ольга Иванова, Константин Стрельников, Сергей Колесников, Сергей Комаров, Игорь Волков
Описание:
Фильм о Петре Набокове по прозвищу "Апостол", одном из ведущих героев телесериала "Ментовские войны". Кто-то объявил охоту на Апостола, покушение следует за покушением. Набоков не знает, кто за этим стоит, но должен разобраться, ведь на кону не только его жизнь, но и судьба недавно найденной им дочери Милы. Апостол считает, что его решил убрать Пантелей, с которым у них сложился конфликт из-за бизнес-интересов. А может быть это месть давнего врага Апостола — Градуса, который, отсидев 20 лет, вышел на свободу. Апостол не может рисковать жизнью дочери и решает отправить её за границу. И, едва Мила уезжает, в дом Апостола врываются киллеры. Лишь хорошая реакция и большой жизненный опыт позволяют Набокову остаться в живых и обезвредить преступников. Он решается на неожиданный шаг, о котором не рассказывает никому, даже дочери и начальнику своей охраны Реутову. Апостол с помощью своих старых друзей начинает собственное расследование. Правда, которую ему предстоит открыть, окажется намного страшнее, чем он мог себе представить…
Качество: WEB-DLRip
Формат: AVI
Видео кодек: XviD
Аудио кодек: MP3
Видео: 720x400 (16:9), 25.000 fps, 1 984 Kbps (0.276 bit/pixel)
Аудио#1: 48.0 KHz, 2 ch, 128 Kbps, CBR
скриншот   скриншот   скриншот   скриншот   скриншот   скриншот   скриншот   скриншот  

Общее
Полное имя : H:\Отцовский инстинкт Апостол\Апостол.Отцовский инсктинтWEBRip.avi
Формат : AVI
Формат/Информация : Audio Video Interleave
Размер файла : 1,36 Гбайт
Продолжительность : 1 ч. 32 м.
Общий поток : 2122 Кбит/сек
Библиотека кодирования : VirtualDub build 35491/release

Видео
Идентификатор : 0
Формат : MPEG-4 Visual
Профиль формата : Advanced Simple@L5
Параметр BVOP формата : 2
Параметр QPel формата : Нет
Параметр GMC формата : Без точки перехода
Параметр матрицы формата : Default (H.263)
Режим смешивания : Сжатый битовый поток
Идентификатор кодека : XVID
Идентификатор кодека/Подсказка : XviD
Продолжительность : 1 ч. 32 м.
Битрейт : 1984 Кбит/сек
Ширина : 720 пикселей
Высота : 400 пикселей
Соотношение сторон : 16:9
Частота кадров : 25,000 кадров/сек
Цветовое пространство : YUV
Субдискретизация насыщенности : 4:2:0
Битовая глубина : 8 бит
Тип развёртки : Прогрессивная
Метод сжатия : С потерями
Бит/(Пиксели*Кадры) : 0.276
Размер потока : 1,28 Гбайт (94%)
Библиотека кодирования : XviD 73

Аудио
Идентификатор : 1
Формат : MPEG Audio
Версия формата : Version 1
Профиль формата : Layer 3
Режим : Joint stereo
Расширение режима : MS Stereo
Идентификатор кодека : 55
Идентификатор кодека/Подсказка : MP3
Продолжительность : 1 ч. 32 м.
Вид битрейта : Постоянный
Битрейт : 128 Кбит/сек
Каналы : 2 канала
Частота : 48,0 КГц
Метод сжатия : С потерями
Задержка видео : 100 мс.
Размер потока : 84,3 Мбайт (6%)
Выравнивание : Разделение по промежуткам
Продолжительность промежутка : 40 мс. (1,00 видеокадр)
Время предзагрузки промежутка : 500 мс.

piratbit.pw



Скачать Отцовский инстинкт через торрент http://pic.kartinco.top/images/8/orq8d.jpg Скачать фильм Отцовский инстинктчерез торрент бесплантно в хорошем качестве Описание:Фильм о Петре Набокове по прозвищу "Апостол", одном из ведущих героев телесериала "Ментовские войны". Кто-то объявил охоту на ... 9.2 10 36
Торрент: Зарегистрирован [2014-12-26 10:27] · скачан: 1 492 раз
Статус: √ проверено
Размер: 1.36 GB
Как cкачать? Как скачать Отцовский инстинкт через торрент | qTorrent

28-11-2019 20:33  

Отключить всю рекламу на сайте

28-12-2014 09:04 Отцовский инстинкт Скачать торрент  

нда
очередной герой из криминального мира
ну и идеалы пошлиpiratbit.pw



18-05-2015 11:57 Отцовский инстинкт Скачать торрент  

Ну, а что Вы хотели? 20 лет бандиты управляют страной! Наивно думать, что будут другие идеалы.piratbit.pw



    Дорогой пользователь! Огромная просьба, поблагодарите релизера, оцените раздачу и оставьте свои комментарий, если Вы скачали Отцовский инстинкт через торрент бесплатно! Внесите свою лепту в развитие PiratBit!
    Комментировать посты могут только пользователи прошедшие не сложную регистрацию
    Показать сообщения:    

    Отцовский инстинкт через торрент
    Скачать бесплатно Отцовский инстинкт
    Отцовский инстинкт скачать торрент
    Отцовский инстинкт смотреть онлайн
    Cкачать фильм Отцовский инстинкт бесплатно
    Отцовский инстинкт скачать торрент в хорошем качестве
    Отцовский инстинкт смотреть онлайн бесплатно в хорошем качестве


    Вы не можете начинать темы
    Вы не можете отвечать на сообщения
    Вы не можете редактировать свои сообщения
    Вы не можете удалять свои сообщения
    Вы не можете голосовать в опросах
    Вы не можете прикреплять файлы к сообщениям
    Вы можете скачивать файлы