1 сезон

3 сезон

iTunes

1

iTunes

DUB Netflix

iTunes

13

1 сезон

RePack

30

Deluxe

pack

Легкие деньги

ВАЖНО

ИГРА 18+

pack

RePack

MK11

RePack

jed

RePack

fifa19

RePack

RDR2

RePack

NEED FOR SPEED™ PAYBACK

4 сезон

9 сезон

Бесстыжие 9 сезон

Все сериалы

все сериалы на PB.wtf

RePack

FAR CRY 5

Anonymous, доброй ночи, мы не успеваем до 1 числа собрать деньги на оплату серверов, помогите нам пожалуйста в это трудное время. В качестве благодарности мы отключим Вам всю рекламу на сайте (укажите свой ник в строку Ваше имя)!

×
  
Magnet ссылка

Убить человека / Matar a un hombre (Алехандро Фернандез Альмендрас / Alejandro Fernández Almendras) [2014, Чили, Франция, драма, HDRip, Любительский (одноголосый) [Pashaup] piratbit.pw

Убить человека через торрент piratbit.pw

Размер: 1.4 GB | Добавлен: 6 лет 5 мес. назад | Торрент скачан:98 раз
Скачать  

26-12-2014 04:37 Убить человека Скачать торрент  

Убить человека / Matar a un hombre


  • Год выпуска: 2014
  • Страна: Чили, Франция
  • Жанр: драма
  • Продолжительность: 01:22:04
  • Перевод: Любительский (одноголосый) [Павел Морозов aka PashaUp] - по переводу [SubMaster]

  • Режиссер: Алехандро Фернандез Альмендрас / Alejandro Fernández Almendras
  • В ролях:

    Дэниэл Кандия (Jorge), Алехандра Яньес (Marta), Дэниэл Антивило (Kalule), Ариэль Мателуна (Jorgito), Jennifer Salas (Nicole), Don Willie (Daniel), Paula Leoncini (Fiscal), Daniel Urrutia (Juez), Эдуардо Виллалобос (Abogado Defensor), Sol Banoviez (Secretaria Fiscal), Jorge Sandoval (Policía 1), Gonzalo Guzmán (Policía 2)

  • Описание:
    Район, где живет добропорядочный семьянин, представитель среднего класса Хорхе, оказывается во власти уличных хулиганов. Однажды ночью, возвращаясь с работы, герой подвергается нападению. Сын Хорхе пытается защитить отца, но получает огнестрельное ранение. Вместе с супругой Мартой Хорхе ищет поддержку у правоохранительных органов, но сталкивается с беззаконием и бесконечной чередой бюрократических процедур. Беззащитные перед бандитами, герои фильма мучаются от страха и унижений, пока Хорхе, оказавшийся загнанным в угол, не осознает, что должен взять ситуацию в свои руки.
  • Рейтинг:



  • Качество: HDRip
  • Формат: :AVI
  • Видео кодек: XviD
  • Аудио кодек: AC3
  • Видео: 720x304 (2.35:1), 1977 kbps, 24 fps, 0,377 bpp
  • Аудио: 5.1 / 48 kHz / 448 kbps / 16 bit
  • Релиз от: GEKADOL

    Код:

    General
    Complete name                            : D:\Фильмы\killaman_2014.avi
    Format                                   : AVI
    Format/Info                              : Audio Video Interleave
    File size                                : 1.40 GiB
    Duration                                 : 1h 22mn
    Overall bit rate                         : 2 435 Kbps
    Writing application                      : VirtualDubMod 1.5.10.2 (build 2540/release)
    Writing library                          : VirtualDubMod build 2540/release

    Video
    ID                                       : 0
    Format                                   : MPEG-4 Visual
    Format profile                           : Advanced Simple@L5
    Format settings, BVOP                    : 2
    Format settings, QPel                    : No
    Format settings, GMC                     : No warppoints
    Format settings, Matrix                  : Default (MPEG)
    Codec ID                                 : XVID
    Codec ID/Hint                            : XviD
    Duration                                 : 1h 22mn
    Bit rate                                 : 1 978 Kbps
    Width                                    : 720 pixels
    Height                                   : 304 pixels
    Display aspect ratio                     : 2.35:1
    Frame rate                               : 24.000 fps
    Color space                              : YUV
    Chroma subsampling                       : 4:2:0
    Bit depth                                : 8 bits
    Scan type                                : Progressive
    Compression mode                         : Lossy
    Bits/(Pixel*Frame)                       : 0.377
    Stream size                              : 1.13 GiB (81%)
    Writing library                          : XviD 1.2.1 (UTC 2008-12-04)

    Audio
    ID                                       : 1
    Format                                   : AC-3
    Format/Info                              : Audio Coding 3
    Mode extension                           : CM (complete main)
    Codec ID                                 : 2000
    Duration                                 : 1h 22mn
    Bit rate mode                            : Constant
    Bit rate                                 : 448 Kbps
    Channel(s)                               : 6 channels
    Channel positions                        : Front: L C R, Side: L R, LFE
    Sampling rate                            : 48.0 KHz
    Bit depth                                : 16 bits
    Compression mode                         : Lossy
    Stream size                              : 263 MiB (18%)
    Alignment                                : Split accross interleaves
    Interleave, duration                     : 42 ms (1.00 video frame)
    Interleave, preload duration             : 500 ms


    Скриншоты:



    piratbit.pw



  • Скачать Убить человека через торрент http://i64.fastpic.ru/big/2014/1226/53/a6f89425936f73dadce0020a26766653.jpg Скачать фильм Убить человека через торрент бесплантно в хорошем качестве Описание: Район, где живет добропорядочный семьянин, представитель среднего класса Хорхе, оказывается во власти уличных хулиганов. Однажды ... 10 10 2
    Торрент: Зарегистрирован [2014-12-26 04:37] · скачан: 98 раз
    Статус: T временная
    Размер: 1.4 GB
    Как cкачать? Как скачать Убить человека через торрент | UTorrent

    28-11-2019 20:33  

    Отключить всю рекламу на сайте

      Дорогой пользователь! Огромная просьба, поблагодарите релизера, оцените раздачу и оставьте свои комментарий, если Вы скачали Убить человека через торрент бесплатно! Внесите свою лепту в развитие PiratBit!
      Комментировать посты могут только пользователи прошедшие не сложную регистрацию
      Показать сообщения:    

      Убить человека через торрент
      Скачать бесплатно Убить человека
      Убить человека скачать торрент
      Убить человека смотреть онлайн
      Cкачать фильм Убить человека бесплатно
      Убить человека скачать торрент в хорошем качестве
      Убить человека смотреть онлайн бесплатно в хорошем качестве


      Вы не можете начинать темы
      Вы не можете отвечать на сообщения
      Вы не можете редактировать свои сообщения
      Вы не можете удалять свои сообщения
      Вы не можете голосовать в опросах
      Вы не можете прикреплять файлы к сообщениям
      Вы можете скачивать файлы