1 сезон

3 сезон

iTunes

1

iTunes

DUB Netflix

iTunes

13

1 сезон

RePack

30

Deluxe

pack

Легкие деньги

ВАЖНО

ИГРА 18+

pack

RePack

MK11

RePack

jed

RePack

fifa19

RePack

RDR2

RePack

NEED FOR SPEED™ PAYBACK

4 сезон

9 сезон

Бесстыжие 9 сезон

Все сериалы

все сериалы на PB.wtf

RePack

FAR CRY 5

Anonymous, добрый вечер, мы не успеваем до 1 числа собрать деньги на оплату серверов, помогите нам пожалуйста в это трудное время. В качестве благодарности мы отключим Вам всю рекламу на сайте (укажите свой ник в строку Ваше имя)!

×
  
Magnet ссылка

Общага / Alpha House (Джейкоб Куни / Jacob Cooney) [2014, США, комедия, BDRip, Любительский (одноголосый)[Andi] piratbit.pw

Общага через торрент piratbit.pw

Размер: 1.39 GB | Добавлен: 6 лет 5 мес. назад | Торрент скачан:775 раз
Скачать  

26-12-2014 03:28 Общага Скачать торрент  

Общага / Alpha House
«The wildest frat house is going... Co-Ed!»


  • Год выпуска: 2014
  • Страна: США
  • Жанр: комедия
  • Продолжительность: 01:28:32
  • Перевод: Любительский (одноголосый)[Andi], перевод [М.Васильев]

  • Режиссер: Джейкоб Куни / Jacob Cooney
  • В ролях:

    Julien Bensimhon (Cameron), Хезер Пейдж Кон (Kelly Kramer), Chris O'Brien (Zack), Джин Луиз О’Салливан (Melanie Parker), Д.С. Дуглас (Dean Marshall), Sam Aotaki (Natalie), Anna Beletzki (Misty), Эли Билднер (Stuart), Michael Lewis Foster (Nate), Одри Эллис Фокс (Emily), Жанна Бет (Jessica), Жакелина Кардинале (Renee)

  • Описание:
    Когда руководство университета решает избавиться от одного из самых диких и шумных студенческих братств, оно принимает радикальное решение: открыть в братство доступ для студенток-отличниц, чтобы они своим примером перевоспитывали двоечников. Молодежная дурашлепская комедия, где двигатель сюжета - толпа девушек в бикини.
  • Рейтинг:



  • Качество: BDRip
  • Формат: :AVI
  • Видео кодек: XviD
  • Аудио кодек: AC3
  • Видео: 720x400 (16:9), 1985 kbps, 23,976 fps, 0,288 bpp
  • Аудио: 5.1 / 48 kHz / 256 kbps / 16 bit
  • Релиз от: GEKADOL

    Код:

    General
    Complete name                            : D:\Фильмы\Alpha.House.2014.L1.BDRip.avi
    Format                                   : AVI
    Format/Info                              : Audio Video Interleave
    File size                                : 1.39 GiB
    Duration                                 : 1h 28mn
    Overall bit rate                         : 2 251 Kbps
    Writing application                      : VirtualDubMod 1.5.10.3 | www.virtualdub-fr.org || (build 2550/release)
    Writing library                          : VirtualDubMod build 2550/release

    Video
    ID                                       : 0
    Format                                   : MPEG-4 Visual
    Format profile                           : Advanced Simple@L5
    Format settings, BVOP                    : 1
    Format settings, QPel                    : No
    Format settings, GMC                     : No warppoints
    Format settings, Matrix                  : Custom
    Codec ID                                 : XVID
    Codec ID/Hint                            : XviD
    Duration                                 : 1h 28mn
    Bit rate                                 : 1 985 Kbps
    Width                                    : 720 pixels
    Height                                   : 400 pixels
    Display aspect ratio                     : 16:9
    Frame rate                               : 23.976 fps
    Color space                              : YUV
    Chroma subsampling                       : 4:2:0
    Bit depth                                : 8 bits
    Scan type                                : Progressive
    Compression mode                         : Lossy
    Bits/(Pixel*Frame)                       : 0.288
    Stream size                              : 1.23 GiB (88%)
    Writing library                          : XviD 73

    Audio
    ID                                       : 1
    Format                                   : AC-3
    Format/Info                              : Audio Coding 3
    Mode extension                           : CM (complete main)
    Codec ID                                 : 2000
    Duration                                 : 1h 28mn
    Bit rate mode                            : Constant
    Bit rate                                 : 256 Kbps
    Channel(s)                               : 6 channels
    Channel positions                        : Front: L C R, Side: L R, LFE
    Sampling rate                            : 48.0 KHz
    Bit depth                                : 16 bits
    Compression mode                         : Lossy
    Stream size                              : 162 MiB (11%)
    Alignment                                : Split accross interleaves
    Interleave, duration                     : 42 ms (1.00 video frame)
    Interleave, preload duration             : 500 ms


    Скриншоты:



    piratbit.pw



  • Скачать Общага через торрент http://i64.fastpic.ru/big/2014/1226/b7/3f70b6205beb54c569b4d2ef361ffbb7.jpg Скачать фильм Общага через торрент бесплантно в хорошем качестве Описание: Когда руководство университета решает избавиться от одного из самых диких и шумных студенческих братств, оно принимает ... 9.3 10 20
    Торрент: Зарегистрирован [2014-12-26 03:28] · скачан: 775 раз
    Статус: T временная
    Размер: 1.39 GB
    Как cкачать? Как скачать Общага через торрент | UTorrent

    28-11-2019 20:33  

    Отключить всю рекламу на сайте

    26-12-2014 17:59 Общага Скачать торрент  

    на втором скрине не заметил бикини))piratbit.pw



      Дорогой пользователь! Огромная просьба, поблагодарите релизера, оцените раздачу и оставьте свои комментарий, если Вы скачали Общага через торрент бесплатно! Внесите свою лепту в развитие PiratBit!
      Комментировать посты могут только пользователи прошедшие не сложную регистрацию
      Показать сообщения:    

      Общага через торрент
      Скачать бесплатно Общага
      Общага скачать торрент
      Общага смотреть онлайн
      Cкачать фильм Общага бесплатно
      Общага скачать торрент в хорошем качестве
      Общага смотреть онлайн бесплатно в хорошем качестве


      Вы не можете начинать темы
      Вы не можете отвечать на сообщения
      Вы не можете редактировать свои сообщения
      Вы не можете удалять свои сообщения
      Вы не можете голосовать в опросах
      Вы не можете прикреплять файлы к сообщениям
      Вы можете скачивать файлы