1 сезон

3 сезон

iTunes

1

iTunes

DUB Netflix

iTunes

13

1 сезон

RePack

30

Deluxe

pack

Легкие деньги

ВАЖНО

ИГРА 18+

pack

RePack

MK11

RePack

jed

RePack

fifa19

RePack

RDR2

RePack

NEED FOR SPEED™ PAYBACK

4 сезон

9 сезон

Бесстыжие 9 сезон

Все сериалы

все сериалы на PB.wtf

RePack

FAR CRY 5

Anonymous, доброе утро, мы не успеваем до 1 числа собрать деньги на оплату серверов, помогите нам пожалуйста в это трудное время. В качестве благодарности мы отключим Вам всю рекламу на сайте (укажите свой ник в строку Ваше имя)!

×
  
Magnet ссылка

После падения / After the Fall (Заар Клейн ) [2014, драма, криминал, WEB-DLRip, Любительский (одноголосый) [Pashaup] piratbit.pw

После падения через торрент piratbit.pw

Размер: 698 MB | Добавлен: 6 лет 5 мес. назад | Торрент скачан:17 раз
Скачать  

25-12-2014 07:03 После падения Скачать торрент  

После падения / After the Fall

Год выпуска: 2014
Страна: США
Жанр: драма, криминал
Продолжительность: 01:49:56
Перевод: Любительский (одноголосый) [Павел Морозов aka PashaUp] - по переводу [kalich411]
Режиссер: Заар Клейн
В ролях: Уэс Бентли (Bill Scanlon), Винесса Шоу (Susan Scanlon), Хейли Беннетт, Джейсон Айзекс (Frank McTiernan), Одри Уолтерс (Babs), Aaron Alexander (Bartender), Лайонел Арчулета (Bowler), Бет Бэйли (Doris), Райан Бегей (Bank Security Guard), Джереми Битсуи, Луис Бордонада (Jorge), Нэйтан Бриммер (Police Officer)
Описание:
Отец семейства среднего достатка встречается с финансовыми невзгодами, что вынуждает его стать закоренелым преступником в тайне от жены и детей, которых необходимо кормить и одевать...
Рейтинг:

MPAA: R - Лицам до 17 лет обязательно присутствие взрослого
Качество: WEB-DLRip
Формат: AVI
Видео кодек: XviD
Аудио кодек:MP3
Видео: XviD, 640x272 (2.35:1), 750 kbps, 23,976 fps, 0,180 bpp
Аудио: MP3 / 2.0 / 48 kHz / 128 kbps /

Код:

General
Complete name                            : D:\Торенты\Раздачи\After.the.Fall.2014.WEB-DLRip.700mb.avi
Format                                   : AVI
Format/Info                              : Audio Video Interleave
File size                                : 698 MiB
Duration                                 : 1h 49mn
Overall bit rate                         : 887 Kbps
Writing application                      : VirtualDubModRus 1.5.10.2 (build 2542/release)
Writing library                          : VirtualDubMod build 2542/release

Video
ID                                       : 0
Format                                   : MPEG-4 Visual
Format profile                           : Advanced Simple@L5
Format settings, BVOP                    : 2
Format settings, QPel                    : No
Format settings, GMC                     : No warppoints
Format settings, Matrix                  : Default (H.263)
Muxing mode                              : Packed bitstream
Codec ID                                 : XVID
Codec ID/Hint                            : XviD
Duration                                 : 1h 49mn
Bit rate                                 : 750 Kbps
Width                                    : 640 pixels
Height                                   : 272 pixels
Display aspect ratio                     : 2.35:1
Frame rate                               : 23.976 fps
Color space                              : YUV
Chroma subsampling                       : 4:2:0
Bit depth                                : 8 bits
Scan type                                : Progressive
Compression mode                         : Lossy
Bits/(Pixel*Frame)                       : 0.180
Stream size                              : 590 MiB (85%)
Writing library                          : XviD 66

Audio
ID                                       : 1
Format                                   : MPEG Audio
Format version                           : Version 1
Format profile                           : Layer 3
Codec ID                                 : 55
Codec ID/Hint                            : MP3
Duration                                 : 1h 49mn
Bit rate mode                            : Constant
Bit rate                                 : 128 Kbps
Channel(s)                               : 2 channels
Sampling rate                            : 48.0 KHz
Compression mode                         : Lossy
Stream size                              : 101 MiB (14%)
Alignment                                : Aligned on interleaves
Interleave, duration                     : 42 ms (1.00 video frame)
Interleave, preload duration             : 504 ms
Writing library                          : LAME3.99r
Encoding settings                        : -m s -V 4 -q 2 -lowpass 17 -b 128

piratbit.pw



Скачать После падения через торрент http://i63.fastpic.ru/big/2014/1225/96/c58ac4554d94af06d69fc5fbc61a1c96.jpg Скачать фильм После падения через торрент бесплантно в хорошем качестве Описание: Отец семейства среднего достатка встречается с финансовыми невзгодами, что вынуждает его стать закоренелым преступником в тайне ... 1 10 1
Торрент: Зарегистрирован [2014-12-25 07:03] · скачан: 17 раз
Статус: T временная
Размер: 698 MB
Как cкачать? Как скачать После падения через торрент | UTorrent

% Раздел Тема Автор DL S | L
T Фильмы 2014 (Звук TS, Cam, VO, DVO) [ 1.45 GB ] После падения / After the Fall [2014 WEB-DLRip Любительский [Pashaup] Ворон Скачать
1 | 0

28-11-2019 20:33  

Отключить всю рекламу на сайте

    Дорогой пользователь! Огромная просьба, поблагодарите релизера, оцените раздачу и оставьте свои комментарий, если Вы скачали После падения через торрент бесплатно! Внесите свою лепту в развитие PiratBit!
    Комментировать посты могут только пользователи прошедшие не сложную регистрацию
    Показать сообщения:    

    После падения через торрент
    Скачать бесплатно После падения
    После падения скачать торрент
    После падения смотреть онлайн
    Cкачать фильм После падения бесплатно
    После падения скачать торрент в хорошем качестве
    После падения смотреть онлайн бесплатно в хорошем качестве


    Вы не можете начинать темы
    Вы не можете отвечать на сообщения
    Вы не можете редактировать свои сообщения
    Вы не можете удалять свои сообщения
    Вы не можете голосовать в опросах
    Вы не можете прикреплять файлы к сообщениям
    Вы можете скачивать файлы