Ссылка на приватное зеркало нашего сайта всего за 1$. Внимание количество ограничено!!!

2 сезон

iTunes

1 сезон

1

2 сезон

2 сезон

iTunes

1 сезон

RePack

30

Новинка

ВАЖНО

ИГРА 18+

pack

RePack

MK11
pack

Забери бонус

RePack

jed

!!Акция!!

Alien_Rage

RePack

fifa19

RePack

Assassins Creed: Odyssey

RePack

NEED FOR SPEED™ PAYBACK

4 сезон

9 сезон

Бесстыжие 9 сезон

Все сериалы

все сериалы на PB.wtf

RePack

FAR CRY 5
  

По ту сторону изгороди / Over the Garden Wall (Нат Кэш / Nate Cash) (1 сезон)(1-10 cерии из 10)[2014, США, мультфильм, мюзикл, фэнтези, WEBRip, Любительский многоголосый] piratbit.pw

По ту сторону изгороди через торрент piratbit.pw

Раздают: 1 [ 0 KB/s ]
Размер: 1.32 GB | Добавлен: 5 лет 11 мес. назад | Торрент скачан:211 раз
Скачать  

25-12-2014 00:23 По ту сторону изгороди Скачать торрент  

По ту сторону изгороди / Over the Garden Wall / (мини-сериал) «Will you take a peek?»

Год выпуска: 2014
Страна: США
Жанр: мультфильм, мюзикл, фэнтези, драма, приключения
Продолжительность: 00:11:25
Перевод: Любительский многоголосый
Субтитры: Отсутствует
Режиссер: Нат Кэш / Nate Cash
В ролях:


Элайджа Вуд (Wirt), Колин Дин (Gregory), Мелани Лински (Beatrice), Кристофер Ллойд (The Woodsman), Самюэл Рейми (The Beast), Джек Джонс (Gregory's Frog), Джон Клиз (Adelaide), Эмили Брандидж (Sara), Ширли Джонс (Beatrice's Mother), Фред Столлер (Fred The Horse), Коул Санчез (Jason Funderberker), Крис Айзек (дополнительные голоса)

Описание:
В центре событий два брата Грег - младший из братьев и Вирт - старший из братьев. Им предстоит путешествие через таинственный и страшный лес, только пройдя его они смогут попасть домой.

Рейтинг:

Качество: WEBRip
Формат: AVI
Видео кодек:xvid
Аудио кодек:AC3
Видео: xvid, 640x360 (16:9), 1259 kbps, 23,976 fps, 0,228 bpp
Аудио №1: AC3 / 2.0 / 48 kHz / 192 kbps / 16 bit - Любительское (многоголосое) [Причудики]
Аудио №2: AC3 / 2.0 / 48 kHz / 192 kbps / 16 bit - (оригинал)


General
Complete name : D:\Users\_KaisiK_\uTorrent\Over.The.Garden.Wall.s01\Over.The.Garden.Wall.s01e05.pri4udiki.avi
Format : AVI
Format/Info : Audio Video Interleave
File size : 135 MiB
Duration : 11mn 25s
Overall bit rate : 1 657 Kbps
Writing application : VirtualDubMod 1.5.10.2 (build 2540/release)
Writing library : VirtualDubMod build 2540/release

Video
ID : 0
Format : xvid
Codec ID : xvid
Duration : 11mn 25s
Bit rate : 1 259 Kbps
Width : 640 pixels
Height : 360 pixels
Display aspect ratio : 16:9
Frame rate : 23.976 fps
Bits/(Pixel*Frame) : 0.228
Stream size : 103 MiB (76%)

Audio #1
ID : 1
Format : AC-3
Format/Info : Audio Coding 3
Mode extension : CM (complete main)
Codec ID : 2000
Duration : 11mn 25s
Bit rate mode : Constant
Bit rate : 192 Kbps
Channel(s) : 2 channels
Channel positions : Front: L R
Sampling rate : 48.0 KHz
Bit depth : 16 bits
Compression mode : Lossy
Stream size : 15.7 MiB (12%)
Alignment : Split accross interleaves
Interleave, duration : 42 ms (1.00 video frame)
Interleave, preload duration : 500 ms

Audio #2
ID : 2
Format : AC-3
Format/Info : Audio Coding 3
Mode extension : CM (complete main)
Codec ID : 2000
Duration : 11mn 25s
Bit rate mode : Constant
Bit rate : 192 Kbps
Channel(s) : 2 channels
Channel positions : Front: L R
Sampling rate : 48.0 KHz
Bit depth : 16 bits
Compression mode : Lossy
Stream size : 15.7 MiB (12%)
Alignment : Split accross interleaves
Interleave, duration : 42 ms (1.00 video frame)
Interleave, preload duration : 500 ms

[/code]
piratbit.pw



Скачать По ту сторону изгороди через торрент http://i67.fastpic.ru/big/2014/1225/73/86f0c5294d119f8befeae8c50dbaca73.jpg Скачать фильм По ту сторону изгороди через торрент бесплантно в хорошем качестве Описание: В центре событий два брата Грег - младший из братьев и Вирт - старший из братьев. Им предстоит путешествие через таинственный и ... 10 10 5
Торрент: Зарегистрирован [2014-12-25 00:23] · скачан: 211 раз
Статус: √ проверено
Размер: 1.32 GB
Как cкачать? Как скачать По ту сторону изгороди через торрент | qTorrent

28-11-2019 20:33  

Отключить всю рекламу на сайте

    Дорогой пользователь! Огромная просьба, поблагодарите релизера, оцените раздачу и оставьте свои комментарий, если Вы скачали По ту сторону изгороди через торрент бесплатно! Внесите свою лепту в развитие PiratBit!
    Комментировать посты могут только пользователи прошедшие не сложную регистрацию
    Показать сообщения:    

    По ту сторону изгороди через торрент
    Скачать бесплатно По ту сторону изгороди
    По ту сторону изгороди скачать торрент
    По ту сторону изгороди смотреть онлайн
    Cкачать фильм По ту сторону изгороди бесплатно
    По ту сторону изгороди скачать торрент в хорошем качестве
    По ту сторону изгороди смотреть онлайн бесплатно в хорошем качестве


    Вы не можете начинать темы
    Вы не можете отвечать на сообщения
    Вы не можете редактировать свои сообщения
    Вы не можете удалять свои сообщения
    Вы не можете голосовать в опросах
    Вы не можете прикреплять файлы к сообщениям
    Вы можете скачивать файлы