Ссылка на приватное зеркало нашего сайта всего за 1$. Внимание количество ограничено!!!

2 сезон

iTunes

1 сезон

1

iTunes

iTunes

iTunes

1 сезон

RePack

30

ИГРА 18+

pack

ВАЖНО

!!Акция!!

Alien_RageХит недели

RePack

MK11
pack

Забери бонус

RePack

jed

!!Акция!!

Alien_Rage

RePack

fifa19

RePack

Assassins Creed: Odyssey

RePack

NEED FOR SPEED™ PAYBACK

4 сезон

9 сезон

Бесстыжие 9 сезон

Все сериалы

все сериалы на PB.wtf

RePack

FAR CRY 5
  

След тигра (Алексей Козлов) [2014 г., драма, криминал, DVB] piratbit.pw

След тигра через торрент piratbit.pw

Размер: 1.71 GB | Добавлен: 5 лет 9 мес. назад | Торрент скачан:1267 раз
Скачать  

22-12-2014 15:40 След тигра Скачать торрент  

Информация о фильме

Название: След тигра

Год выхода: 2014

Выпущено: Россия, Студия «КонтАкт продакшн»

Продолжительность: 01:31:00

Перевод: Не требуется

Жанр: Криминальная драма

Режиссер: Алексей Козлов

В ролях: Александр Балуев, Алексей Кравченко, Денис Никифоров, Александр Устюгов, Мария Порошина, Мария Пирогова, Роман Мадянов, Олег Васильков, Вадим Андреев, Руслан Барабанов, Дин Фан, Никита Рогов

Описание: В небольшом поселке, расположенном в тайге Приморского края, живет потомственный егерь Павел Широков. Однажды на его участке произошло дерзкое преступление: браконьеры отстрелили двух уссурийских тигров. В тот же день сотрудники ДПС остановили на трассе внедорожник. На просьбу открыть багажник пассажиры отреагировали агрессивно, началась перестрелка, и все ее участники погибли. Прибывший на место преступления полковник Хазов обнаружил в багажнике машины убитых тигров и узнал в одном из погибших браконьеров местного охотника-проводника. Хазов уверен: в ближайшие дни преступники будут искать нового человека, который сможет вывести их на след тигра. Он предлагает Широкову опередить браконьеров и выйти к месту нахождения тигра первыми, чтобы успеть предотвратить убийство животного. Уже в тайге, практически выследив уссурийского тигра, Широков понимает, что попал в смертельную ловушку…

Файл:

Качество: DVB
Формат : MPEG-TS
Видео кодек: AVC
Видео: MPEG-4 AVC, ~ 2400 Кбит/с, 720x576@1047х576, 23,976 fps

Аудио: MP2, 2 ch, 192 Кбит/с / 48 kHz
Общее
Идентификатор : 1 (0x1)
Полное имя : H:\Sled.tigra.2014.DVB.Files-x.ts
Формат : MPEG-TS
Размер файла : 1,71 Гбайт
Продолжительность : 1 ч. 31 м.
Общий поток : 2682 Кбит/сек
Видео
Идентификатор : 68 (0x44)
Идентификатор меню : 1 (0x1)
Формат : AVC
Формат/Информация : Advanced Video Codec
Профиль формата : High@L3.0
Параметр CABAC формата : Да
Параметр ReFrames формата : 4 кадра
Параметры GOP формата : M=1, N=38
Идентификатор кодека : 27
Продолжительность : 1 ч. 31 м.
Битрейт : 2356 Кбит/сек
Ширина : 720 пикс.
Высота : 576 пикс.
Соотношение сторон : 16:9
Частота кадров : 25,000 кадр/сек
Стандарт вещания : Component
Цветовое пространство : YUV
Подвыборка цветности : 4:2:0
Битовая глубина : 8 бит
Тип развёртки : Чересстрочная
Порядок развёртки : Верхнее поле первое
Бит/(Пиксели*Кадры) : 0.227
Размер потока : 1,50 Гбайт (88%)
Основные цвета : BT.470-6 System B, BT.470-6 System G, BT.601-6 625, BT.1358 625, BT.1700 625 PAL, BT.1700 625 SECAM
Характеристики трансфера : BT.470-6 System B, BT.470-6 System G
Коэффициенты матрицы : BT.470-6 System B, BT.470-6 System G, BT.601-6 625, BT.1358 625, BT.1700 625 PAL, BT.1700 625 SECAM, IEC 61966-2-4 601
Аудио
Идентификатор : 69 (0x45)
Идентификатор меню : 1 (0x1)
Формат : MPEG Audio
Версия формата : Version 1
Профиль формата : Layer 2
Режим : Dual mono
Идентификатор кодека : 3
Продолжительность : 1 ч. 31 м.
Вид битрейта : Постоянный
Битрейт : 192 Кбит/сек
Каналы : 2 канала
Частота : 48,0 КГц
Метод сжатия : С потерями
Размер потока : 125 Мбайт (7%)
Язык : Russian
Релиз от: piratbit.pw



Скачать След тигра через торрент http://3.firepic.org/3/images/2014-12/21/0ehv1br3v9cl.jpg Скачать фильм След тигра через торрент бесплантно в хорошем качестве Описание: В небольшом поселке, расположенном в тайге Приморского края, живет потомственный егерь Павел Широков. Однажды на его участке ... 9.8 10 24
Торрент: Зарегистрирован [2014-12-22 15:40] · скачан: 1 267 раз
Статус: √ проверено
Размер: 1.71 GB
Как cкачать? Как скачать След тигра через торрент | qTorrent

% Раздел Тема Автор DL S | L
Наши новые фильмы 2014 [ 746 MB ] След тигра [2014 Россия HDTVRip-AVC от sokol_ok] sokol_ok Скачать
2 | 0
Наши новые фильмы 2014 [ 1.46 GB ] След тигра [2014 Россия HDTVRip-AVC от sokol_ok] sokol_ok Скачать
2 | 0
Документальные фильмы и телепередачи [ 1.37 GB ] По следам уссурийского тигра / Operation Snow Tiger / Серии: 1-2 из 2 [2013 Документальный SATRip] VO Один 777 Скачать
1 | 0
Наши новые фильмы 2014 [ 1.37 GB ] След тигра [2014 SATRip] от Files-x Ворон Скачать
1 | 0
Научно-популярные фильмы [ 872 MB ] Сломанный хвост: Последнее путешествие тигра / Nature - Broken Tail: A Tiger's Last Journey [2011 документальный HDRip от R.G.RealMT] nickson-82 Скачать
1 | 0
Фильмы до 2000 г. [ 1.47 GB ] По следу Тигра / Most [1969 военный DVDRip MVO лицензия] Anonymous Скачать
1 | 0
National Geographic [ 972 MB ] National Geographic : Последний тигр Суматры / Sumatra's Last Tigers [2010 Документальный флора фауна HDTVRip ] кэп Скачать
1 | 0

28-11-2019 20:33  

Отключить всю рекламу на сайте

23-12-2014 08:36 След тигра Скачать торрент  

Кто смотрел ?piratbit.pw



24-12-2014 16:11 След тигра Скачать торрент  

Idefiks писал(а):

Кто смотрел ?

Я смотрел-хороший фильм!piratbit.pw



03-01-2015 14:47 След тигра Скачать торрент  

мдда сериал типа серьезные лица писец!!!китайцов прикольно сняли они круче руских и евреев выглядят. решайте сами.а тут это Капромат 100 раз росийкие сми и рус фильм показывают как мвд и фсб убивают людей не доводя до следствия все это действительно разогнано и пропаганда из ниизоов.что бы таких ловилиpiratbit.pw



    Дорогой пользователь! Огромная просьба, поблагодарите релизера, оцените раздачу и оставьте свои комментарий, если Вы скачали След тигра через торрент бесплатно! Внесите свою лепту в развитие PiratBit!
    Комментировать посты могут только пользователи прошедшие не сложную регистрацию
    Показать сообщения:    

    След тигра через торрент
    Скачать бесплатно След тигра
    След тигра скачать торрент
    След тигра смотреть онлайн
    Cкачать фильм След тигра бесплатно
    След тигра скачать торрент в хорошем качестве
    След тигра смотреть онлайн бесплатно в хорошем качестве


    Вы не можете начинать темы
    Вы не можете отвечать на сообщения
    Вы не можете редактировать свои сообщения
    Вы не можете удалять свои сообщения
    Вы не можете голосовать в опросах
    Вы не можете прикреплять файлы к сообщениям
    Вы можете скачивать файлы