1 сезон

1 сезон

iTunes

1

КиноПоиск HD

Кинопоиск HD

iTunes

13

1 сезон

RePack

30

Ultimate

ВАЖНО

ИГРА 18+

pack

RePack

MK11
pack

Легкие деньги

RePack

jed

RePack

fifa19

RePack

RDR2

RePack

NEED FOR SPEED™ PAYBACK

4 сезон

9 сезон

Бесстыжие 9 сезон

Все сериалы

все сериалы на PB.wtf

RePack

FAR CRY 5
  
Magnet ссылка

Гость / The Guest (Адам Вингард ) [2014, боевик, триллер, детектив, BDRip 1080p, Авторское (одноголосое) [Алексей Матвеев] piratbit.pw

Гость через торрент piratbit.pw

Размер: 14.34 GB | Добавлен: 6 лет 4 мес. назад | Торрент скачан:38 раз
Скачать  

22-12-2014 08:07 Гость Скачать торрент  

Гость / The Guest

Год выпуска: 2014
Страна: США
Жанр: боевик, триллер, детектив
Продолжительность: 01:40:24
Перевод: Авторский (одноголосый) Алексей Матвеев (Doctor Joker)
Субтитры: Английские
Режиссер: Адам Вингард
В ролях: Дэн Стивенс («David»), Майка Монро (Anna Peterson), Брендан Мейер (Luke Peterson), Шейла Келли (Laura Peterson), Лиленд Орсер (Spencer Peterson), Лэнс Реддик (Major Carver), Табата Шон (Kristen), Чейз Уильямсон (Zeke), Джоэль Мур (Craig), Стивен Браун (Mike), Brenden Wedner (Ian), Алекс Найт (Mr. Lyles)
Описание:
В семью, потерявшую на войне своего сына и брата, приезжает незнакомец. Он представляется сослуживцем погибшего и напрашивается погостить у них несколько дней, чтобы познакомиться поближе, а заодно рассказать о своей службе. Незнакомец очень приветлив и добр к каждому из членов семьи и при каждом удобном случае старается чем-то помочь. Однако вскоре эта помощь становится все более и более радикальной...
Рейтинг:

MPAA: R - Лицам до 17 лет обязательно присутствие взрослого
Качество: BDRip 1080p
Формат: MKV
Видео кодек: AVC
Аудио кодек:DTS,AC3
Видео: MPEG-4 AVC, 1920x800, 23.976 fps, ~9395 Kbit/s
Аудио 1: AC3, 6 ch, 448 Кбит/с , 48000 Hz [Русский]
Аудио 2: DTS, 48000 Hz, 6 каналов, 1509 kbit/s [Английский]
https://yadi.sk/i/6Ef30WRtdW2Fb

Код:

General
The.Guest.2014.Blu.Ray.1080p.CINEMANIA.mkv
Format : Matroska
Format version : Version 4 / Version 2
File size : 14.3 GiB
Duration : 1h 40mn
Overall bit rate : 20.4 Mbps
Movie name : Release Group CINEMANIA
Encoded date : UTC 2014-12-21 17:15:55
Writing application : mkvmerge v7.4.0 ('Circles') 64bit built on Dec 12 2014 12:19:56
Writing library : libebml v1.3.0 + libmatroska v1.4.1

Video
ID : 1
Format : AVC
Format/Info : Advanced Video Codec
Format profile : High@L4.1
Format settings, CABAC : Yes
Format settings, ReFrames : 5 frames
Codec ID : V_MPEG4/ISO/AVC
Duration : 1h 40mn
Bit rate : 18.5 Mbps
Width : 1 920 pixels
Height : 800 pixels
Display aspect ratio : 2.40:1
Frame rate mode : Constant
Frame rate : 23.976 fps
Color space : YUV
Chroma subsampling : 4:2:0
Bit depth : 8 bits
Scan type : Progressive
Bits/(Pixel*Frame) : 0.502
Stream size : 12.7 GiB (88%)
Title : Release Group CINEMANIA
Writing library : x264 core 142 r2479 dd79a61
Encoding settings : cabac=1 / ref=5 / deblock=1:-3:-3 / analyse=0x3:0x133 / me=umh / subme=10 / psy=1 / psy_rd=1.05:0.00 / mixed_ref=1 / me_range=48 / chroma_me=1 / trellis=2 / 8x8dct=1 / cqm=0 / deadzone=21,11 / fast_pskip=1 / chroma_qp_offset=-2 / threads=16 / lookahead_threads=2 / sliced_threads=0 / nr=0 / decimate=1 / interlaced=0 / bluray_compat=0 / constrained_intra=0 / bframes=9 / b_pyramid=2 / b_adapt=2 / b_bias=0 / direct=3 / weightb=1 / open_gop=0 / weightp=2 / keyint=250 / keyint_min=23 / scenecut=40 / intra_refresh=0 / rc_lookahead=150 / rc=2pass / mbtree=0 / bitrate=18500 / ratetol=1.0 / qcomp=0.80 / qpmin=0 / qpmax=69 / qpstep=4 / cplxblur=20.0 / qblur=0.5 / vbv_maxrate=50000 / vbv_bufsize=62500 / nal_hrd=none / filler=0 / ip_ratio=1.20 / pb_ratio=1.10 / aq=1:0.70
Language : English
Default : Yes
Forced : No

Audio #1
ID : 2
Format : AC-3
Format/Info : Audio Coding 3
Mode extension : CM (complete main)
Format settings, Endianness : Big
Codec ID : A_AC3
Duration : 1h 40mn
Bit rate mode : Constant
Bit rate : 448 Kbps
Channel(s) : 6 channels
Channel positions : Front: L C R, Side: L R, LFE
Sampling rate : 48.0 KHz
Bit depth : 16 bits
Compression mode : Lossy
Stream size : 322 MiB (2%)
Title : А.Матвеев
Language : Russian
Default : Yes
Forced : Yes

Audio #2
ID : 3
Format : DTS
Format/Info : Digital Theater Systems
Mode : 16
Format settings, Endianness : Big
Codec ID : A_DTS
Duration : 1h 40mn
Bit rate mode : Constant
Bit rate : 1 509 Kbps
Channel(s) : 6 channels
Channel positions : Front: L C R, Side: L R, LFE
Sampling rate : 48.0 KHz
Bit depth : 24 bits
Compression mode : Lossy
Stream size : 1.06 GiB (7%)
Language : English
Default : No
Forced : No

Text #1
ID : 5
Format : UTF-8
Codec ID : S_TEXT/UTF8
Codec ID/Info : UTF-8 Plain Text
Language : English
Default : No
Forced : No

Menu
00:00:00.000 : en:00:00:00.000
00:05:38.129 : en:00:05:38.129
00:09:36.159 : en:00:09:36.159
00:15:39.772 : en:00:15:39.772
00:20:37.653 : en:00:20:37.653
00:26:07.357 : en:00:26:07.357
00:31:22.422 : en:00:31:22.422
00:36:32.941 : en:00:36:32.941
00:40:39.479 : en:00:40:39.479
00:46:43.259 : en:00:46:43.259
00:49:52.531 : en:00:49:52.531
00:55:04.218 : en:00:55:04.218
01:00:38.927 : en:01:00:38.927
01:04:13.349 : en:01:04:13.349
01:09:22.742 : en:01:09:22.742
01:15:38.409 : en:01:15:38.409
01:20:08.053 : en:01:20:08.053
01:25:00.679 : en:01:25:00.679
01:30:15.201 : en:01:30:15.201
01:35:42.904 : en:01:35:42.904

piratbit.pw



Скачать Гость через торрент http://s61.radikal.ru/i171/1412/42/26236416e5aa.png Скачать фильм Гость через торрент бесплантно в хорошем качестве Описание: В семью, потерявшую на войне своего сына и брата, приезжает незнакомец. Он представляется сослуживцем погибшего и напрашивается ... 10 10 2
Торрент: Зарегистрирован [2014-12-22 08:07] · скачан: 38 раз
Статус: √ проверено
Размер: 14.34 GB
Как cкачать? Как скачать Гость через торрент | UTorrent

% Раздел Тема Автор DL S | L
Фильмы [HD 720p, 1080p] (Хороший звук DUB, MVO) [ 7.01 GB ] Гость на свадьбе / The Wedding Guest [2018 BDRip 1080p] MVO bober100 Скачать
1 | 0
Фильмы (Blu-ray, BD-Remux, HDDVD) [ 18.6 GB ] Гость на свадьбе / The Wedding Guest [2018 BD Remux 1080p] MVO bober100 Скачать
1 | 0
Фильмы 2018 [DVDrip, WEB-DLRip, HDrip] (DUB, MVO) [ 2.12 GB ] Гость на свадьбе / The Wedding Guest [2018 BDRip-AVC] MVO - ExKinoRay Enigma2010 Скачать
1 | 0
Фильмы (WEB-DL 720p, 1080p) [ 6.36 GB ] Гость на свадьбе / The Wedding Guest [2018 WEB-DL 1080p] MVO bober100 Скачать
1 | 0
Фильмы 2018 [DVDrip, WEB-DLRip, HDrip] (DUB, MVO) [ 1.46 GB ] Гость на свадьбе / The Wedding Guest [2018 WEB-DLRip] MVO bober100 Скачать
1 | 0
Фильмы 2014 [DVDrip, WEB-DLRip, HDrip] [ 2.11 GB ] Гость / The Guest [2014 BDRip-AVC ] GEKADOL Скачать
1 | 0
Фильмы 2014 [DVDrip, WEB-DLRip, HDrip] [ 1.37 GB ] Гость / The Guest [2014 HDRip - / ] _KaisiK_ Скачать
2 | 0

28-11-2019 20:33  

Отключить всю рекламу на сайте


    Дорогой пользователь! Огромная просьба, поблагодарите релизера, оцените раздачу и оставьте свои комментарий, если Вы скачали Гость через торрент бесплатно! Внесите свою лепту в развитие PiratBit!
    Комментировать посты могут только пользователи прошедшие не сложную регистрацию
    Показать сообщения:    

    Гость через торрент
    Скачать бесплатно Гость
    Гость скачать торрент
    Гость смотреть онлайн
    Cкачать фильм Гость бесплатно
    Гость скачать торрент в хорошем качестве
    Гость смотреть онлайн бесплатно в хорошем качестве


    Вы не можете начинать темы
    Вы не можете отвечать на сообщения
    Вы не можете редактировать свои сообщения
    Вы не можете удалять свои сообщения
    Вы не можете голосовать в опросах
    Вы не можете прикреплять файлы к сообщениям
    Вы можете скачивать файлы