Ссылка на приватное зеркало всего за 1$. Внимание количество ограничено!!!

iTunes

iTunes

iTunes

1

iTunes

iTunes

iTunes

iTunes

iTunes

30
pack

$ от Little Big

ВАЖНО

!!Акция!!

Alien_RageХит недели

RePack

Resident Evil 21

ИГРА 18+

pack

RePack

jed

!!Акция!!

Alien_Rage

RePack

fifa19

RePack

Assassins Creed: Odyssey

RePack

NEED FOR SPEED™ PAYBACK

4 сезон

9 сезон

Бесстыжие 9 сезон

Все сериалы

все сериалы на PB.wtf

RePack

FAR CRY 5
  

Кид Гэлэхэд / Kid Galahad (Майкл Кёртиц / Michael Curtiz) [ 1937 , США , драма, мелодрама, криминал , DVDRip, MVO ] piratbit.pw

Кид Гэлэхэд через торрент piratbit.pw

Размер: 745 MB | Добавлен: 5 лет 6 мес. назад | Торрент скачан:5 раз
Скачать  

20-12-2014 12:43 Кид Гэлэхэд Скачать торрент  

Кид Гэлэхэд / Kid GalahadГод выпуска:1937
Страна: США
Жанр: драма, мелодрама, криминал, спорт
Продолжительность: 01:41:38
Перевод: Профессиональный (многоголосый, закадровый)

Субтитры: Нет
Режиссер: Майкл Кёртиц / Michael Curtiz

В ролях: Эдвард Дж. Робинсон (Nick Donati), Бетт Дэвис (Fluff), Хамфри Богарт (Turkey Morgan), Уэйн Моррис (Ward Guisenberry / Kid Galahad), Джейн Брайан (Marie), Гарри Кэри (Silver Jackson), Уильям Хааде (Chuck McGraw), Соледад Хименес (Mrs. Donati), Джо Каннингэм (Joe Taylor), Бен Велден (Buzz Barett), Джозеф Крехан (Brady), Веда Энн Борг (The Redhead)
Описание:
Когда гостиничный посыльный нокаутирует широко разрекламированного тяжеловеса Чака МакГро, защищая честь девицы Филлипс по кличке Пушок, та дает ему прозвище Кид Гэллэхэд. Ее парень, Ник Донати, принимает решение сделать из юноши чемпиона. Начинаются тренировки, но вскоре Нику приходится пожалеть о своем выборе.
Терзаясь ревностью, так как и Пушок и его собственная сестра, воспитанная в монастыре, проявляют к Киду совершенно определенный интерес, Ник выставляет его против МакГро, будучи уверен, что его боец проиграет. Но все идет совсем не по плану...

Рейтинг
kinopoisk.ru: 7.383 (85)
imdb.com: 7.40 (1782)
Качество: DVDRip
Формат: AVI
Видео кодек: XviD
Аудио кодек: MP3
Видео: XviD, 640x480 (4:3), 887 kbps, 23,976 fps, 0,120 bpp
Аудио: MP3 / 2.0 / 48 kHz / 128 kbps
© Оформление by ФёдорOFF
General
Complete name : D:\раздачи\kid_gelehed_745_.avi
Format : AVI
Format/Info : Audio Video Interleave
File size : 745 MiB
Duration : 1h 41mn
Overall bit rate : 1 025 Kbps
Director : bm11
Writing application : VirtualDubMod 1.5.10.2 (build 2540/release)

Video
ID : 0
Format : MPEG-4 Visual
Format profile : Advanced Simple@L5
Format settings, BVOP : 2
Format settings, QPel : No
Format settings, GMC : No warppoints
Format settings, Matrix : Custom
Codec ID : XVID
Codec ID/Hint : XviD
Duration : 1h 41mn
Bit rate : 887 Kbps
Width : 640 pixels
Height : 480 pixels
Display aspect ratio : 4:3
Frame rate : 23.976 fps
Color space : YUV
Chroma subsampling : 4:2:0
Bit depth : 8 bits
Scan type : Progressive
Compression mode : Lossy
Bits/(Pixel*Frame) : 0.120
Stream size : 645 MiB (87%)
Writing library : XviD 65

Audio
ID : 1
Format : MPEG Audio
Format version : Version 1
Format profile : Layer 3
Mode : Joint stereo
Mode extension : MS Stereo
Codec ID : 55
Codec ID/Hint : MP3
Duration : 1h 41mn
Bit rate mode : Constant
Bit rate : 128 Kbps
Channel(s) : 2 channels
Sampling rate : 48.0 KHz
Compression mode : Lossy
Stream size : 93.1 MiB (12%)
Alignment : Aligned on interleaves
Interleave, duration : 42 ms (1.00 video frame)
Interleave, preload duration : 504 ms
piratbit.pw



Скачать Кид Гэлэхэд через торрент http://i5.imageban.ru/out/2014/12/20/a88fb15a0edfbfb3feb86539bbd5aa84.jpg Скачать фильм Кид Гэлэхэд через торрент бесплантно в хорошем качестве Описание: Когда гостиничный посыльный нокаутирует широко разрекламированного тяжеловеса Чака МакГро, защищая честь девицы Филлипс по кличке ... 9 10 2
Info! Золотая раздача, скачанное не засчитывается.
Торрент: Зарегистрирован [2014-12-20 12:43] · скачан: 5 раз
Статус: √ проверено
Размер: 745 MB
Как cкачать? Как скачать Кид Гэлэхэд через торрент | qTorrent

28-11-2019 20:33  

Отключить всю рекламу на сайте

20-12-2014 13:54 Кид Гэлэхэд Скачать торрент  

(Vetal) Ворон за "спасибо"к раздаче спасибо тебе,но мог бы и проверить сразуpiratbit.pw



20-12-2014 14:58 Кид Гэлэхэд Скачать торрент  

ФёдорOFF, Я с телефона был..Проверил.piratbit.pw



20-12-2014 15:07 Кид Гэлэхэд Скачать торрент  

Ворон писал(а):

ФёдорOFF, Я с телефона был..Проверил.

Спасибо Веталь..(за прогу..отдельно)piratbit.pw



    Дорогой пользователь! Огромная просьба, поблагодарите релизера, оцените раздачу и оставьте свои комментарий, если Вы скачали Кид Гэлэхэд через торрент бесплатно! Внесите свою лепту в развитие PiratBit!
    Комментировать посты могут только пользователи прошедшие не сложную регистрацию
    Показать сообщения:    

    Кид Гэлэхэд через торрент
    Скачать бесплатно Кид Гэлэхэд
    Кид Гэлэхэд скачать торрент
    Кид Гэлэхэд смотреть онлайн
    Cкачать фильм Кид Гэлэхэд бесплатно
    Кид Гэлэхэд скачать торрент в хорошем качестве
    Кид Гэлэхэд смотреть онлайн бесплатно в хорошем качестве


    Вы не можете начинать темы
    Вы не можете отвечать на сообщения
    Вы не можете редактировать свои сообщения
    Вы не можете удалять свои сообщения
    Вы не можете голосовать в опросах
    Вы не можете прикреплять файлы к сообщениям
    Вы можете скачивать файлы