2 сезон

iTunes

1 сезон

1

iTunes

iTunes

iTunes

1 сезон

RePack

30

ИГРА 18+

pack

ВАЖНО

!!Акция!!

Alien_RageХит недели

RePack

MK11
pack

Забери бонус

RePack

jed

!!Акция!!

Alien_Rage

RePack

fifa19

RePack

Assassins Creed: Odyssey

RePack

NEED FOR SPEED™ PAYBACK

4 сезон

9 сезон

Бесстыжие 9 сезон

Все сериалы

все сериалы на PB.wtf

RePack

FAR CRY 5
  

До свидания мама (Светлана Проскурина) [2014, драма, DVDRip] / Лицензия piratbit.pw

До свидания мама через торрент piratbit.pw

Размер: 1.46 GB | Добавлен: 5 лет 10 мес. назад | Торрент скачан:498 раз
Скачать  

18-12-2014 10:45 До свидания мама Скачать торрент  

«Каждая счастливая семья несчастна по-своему»До свидания мама

Страна: Россия / Мосфильм, Кинокомпания «Слон»

Жанр: драма

Год выпуска: 2014

Продолжительность: 01:38:19

Перевод: Не требуется

Cубтитры: нет

Оригинальная аудиодорожка: русский

Режиссер: Светлана Проскурина

В ролях: Даумантас Цюнис, Александра Ребенок, Алексей Вертков, Диана Ганцевскайте, Мария Леонова, Яна Терешина

Описание: Алексей и Анна молодые супруги. Неожиданная встреча Анны с другим мужчиной переворачивает их семейный мир. Любимые становятся чужими, случайный попутчик самым дорогим человеком, а собственный ребенок неудобным препятствием на пути к счастью.



Качество: DVDRip / DVD5 R5 от Кинообъединения «Крупный план»
Видео: 720x400 (16:9), 25.000 fps, XViD, ~1663 kbps avg, 0.231 bit/pix
Формат:AVI
Видео кодек: XviD
Аудио кодек: AC3
Аудио: 48 kHz, AC3, 6 ch, 448 kbps, русский

Раздача от:
General

Format : AVI

Format/Info : Audio Video Interleave

File size : 1.46 GiB

Duration : 1h 38mn

Overall bit rate : 2 121 Kbps

Writing application : VirtualDubMod 1.5.10.3 | www.virtualdub-fr.org || (build 2550/release)

Writing library : VirtualDubMod build 2550/release

Video

ID : 0

Format : MPEG-4 Visual

Format profile : Advanced Simple@L5

Format settings, BVOP : 1

Format settings, QPel : No

Format settings, GMC : No warppoints

Format settings, Matrix : Custom

Codec ID : XVID

Codec ID/Hint : XviD

Duration : 1h 38mn

Bit rate : 1 663 Kbps

Width : 720 pixels

Height : 400 pixels

Display aspect ratio : 16:9

Frame rate : 25.000 fps

Color space : YUV

Chroma subsampling : 4:2:0

Bit depth : 8 bits

Scan type : Progressive

Compression mode : Lossy

Bits/(Pixel*Frame) : 0.231

Stream size : 1.14 GiB (78%)

Writing library : XviD 73

Audio

ID : 1

Format : AC-3

Format/Info : Audio Coding 3

Mode extension : CM (complete main)

Format settings, Endianness : Big

Codec ID : 2000

Duration : 1h 38mn

Bit rate mode : Constant

Bit rate : 448 Kbps

Channel(s) : 6 channels

Channel positions : Front: L C R, Side: L R, LFE

Sampling rate : 48.0 KHz

Bit depth : 16 bits

Compression mode : Lossy

Stream size : 315 MiB (21%)

Alignment : Split accross interleaves

Interleave, duration : 40 ms (1.00 video frame)

Interleave, preload duration : 500 ms
piratbit.pw



Скачать До свидания мама через торрент http://s010.radikal.ru/i313/1412/af/d910a1447074.jpg Скачать фильм До свидания мама через торрент бесплантно в хорошем качестве Описание: Алексей и Анна молодые супруги. Неожиданная встреча Анны с другим мужчиной переворачивает их семейный мир. Любимые становятся ... 8.9 10 14
Торрент: Зарегистрирован [2014-12-18 10:45] · скачан: 498 раз
Статус: √ проверено
Размер: 1.46 GB
Как cкачать? Как скачать До свидания мама через торрент | qTorrent

28-11-2019 20:33  

Отключить всю рекламу на сайте

18-12-2014 11:47 До свидания мама Скачать торрент  

Вот интересно, это очередное УГ о бабском @лядстве и оправдании этого явления Режиссером: Светланой Проскуриной ?

Или же урок безмозглым аленям: - прежде чем обзавестись семьей,подумай..или хочешь такого же сценария.

Начинаем просмотр.piratbit.pw



19-12-2014 05:30 До свидания мама Скачать торрент  

traffa писал(а):

Вот интересно, это очередное УГ о бабском @лядстве и оправдании этого явления Режиссером: Светланой Проскуриной ?

Или же урок безмозглым аленям: - прежде чем обзавестись семьей,подумай..или хочешь такого же сценария.

Начинаем просмотр.

Я думаю фильм затрагивает современную глобальную проблему,когда женщины ради очередного мужчины топят,душат и скидывают с балкона своих детей,лишь бы удержать сожителя.Так что тут не просто б@дство а проблема куда хуже....piratbit.pw



25-12-2014 05:17 До свидания мама Скачать торрент  

История обычной шлюхи...гори она в аду!Зато как развод или там делёжка какая,так суд ВСЕГДА встанет на сторону этих вагиноторговок.Мужик,он же всегда виноват,по умолчанию.ЭТИ то-всегда не при чём,овцы.piratbit.pw



25-12-2014 17:16 До свидания мама Скачать торрент  

полностью соглашусь с предыдущим оратором !!!!!!piratbit.pw



17-04-2016 22:39 До свидания мама Скачать торрент  

Глупый и бессмысленный фильм. 70% состоит из паузы. Не позорьте Российский фильм.piratbit.pw



    Дорогой пользователь! Огромная просьба, поблагодарите релизера, оцените раздачу и оставьте свои комментарий, если Вы скачали До свидания мама через торрент бесплатно! Внесите свою лепту в развитие PiratBit!
    Комментировать посты могут только пользователи прошедшие не сложную регистрацию
    Показать сообщения:    

    До свидания мама через торрент
    Скачать бесплатно До свидания мама
    До свидания мама скачать торрент
    До свидания мама смотреть онлайн
    Cкачать фильм До свидания мама бесплатно
    До свидания мама скачать торрент в хорошем качестве
    До свидания мама смотреть онлайн бесплатно в хорошем качестве


    Вы не можете начинать темы
    Вы не можете отвечать на сообщения
    Вы не можете редактировать свои сообщения
    Вы не можете удалять свои сообщения
    Вы не можете голосовать в опросах
    Вы не можете прикреплять файлы к сообщениям
    Вы можете скачивать файлы