1 сезон

3 сезон

iTunes

1

iTunes

DUB Netflix

iTunes

13

1 сезон

RePack

30

Deluxe

pack

Легкие деньги

ВАЖНО

ИГРА 18+

pack

RePack

MK11

RePack

jed

RePack

fifa19

RePack

RDR2

RePack

NEED FOR SPEED™ PAYBACK

4 сезон

9 сезон

Бесстыжие 9 сезон

Все сериалы

все сериалы на PB.wtf

RePack

FAR CRY 5

Anonymous, доброе утро, мы не успеваем до 1 числа собрать деньги на оплату серверов, помогите нам пожалуйста в это трудное время. В качестве благодарности мы отключим Вам всю рекламу на сайте (укажите свой ник в строку Ваше имя)!

×
  
Magnet ссылка

Мул / The Mule (Тони Махони / Tony Mahony, Энгус Сэмпсон / Angus Sampson) [2014, Австралия, криминал, HDRip, Любительский (двухголосый)[den904, DeadSno] piratbit.pw

Мул через торрент piratbit.pw

Размер: 1.46 GB | Добавлен: 6 лет 6 мес. назад | Торрент скачан:266 раз
Скачать  

15-12-2014 05:48 Мул Скачать торрент  

Мул / The Mule
«Это то, что внутри»


  • Год выпуска: 2014
  • Страна: Австралия
  • Жанр: криминал
  • Продолжительность: 01:42:37
  • Перевод: Любительский (двухголосый)[den904, DeadSno] - по переводу [dsa69]

  • Режиссер: Тони Махони / Tony Mahony, Энгус Сэмпсон / Angus Sampson
  • В ролях:

    Хьюго Уивинг (Croft), Энгус Сэмпсон (Ray Jenkins), Ли Уоннелл (Gavin), Ивен Лесли (Paris), Джофф Морелл, Джорджина Хэйг, Нони Хазлхерст, Джон Ноубл (Pat Shepherd), Ник Фарнелл (Customs Guy), Саймон Кинг (Dr. Zaki), Крис Пэнг (Phuk), Lasarus Ratuere (Josh)

  • Описание:
    История о наивном человеке, который согласился на перевозку наркотиков в своем желудке и был задержан федеральной полицией. Он, оставшийся один и напуганный, принимает отчаянное решение: бросает вызов своему организму и удерживает доказательства внутри... в буквальном смысле. Поступая таким образом, он становится «человеческой бомбой замедленного действия», затаскивая полицейских, преступников и свою семью в безвыходную авантюру.
  • Рейтинг:



  • Качество: HDRip
  • Формат: :AVI
  • Видео кодек: XviD
  • Аудио кодек: AC3
  • Видео: 720x304 (2.35:1), 1580 kbps, 24 fps, 0,301 bpp
  • Аудио: 5.1 / 48 kHz / 448 kbps / 16 bit
  • Релиз от: GEKADOL

    Код:

    General
    Complete name                            : D:\Фильмы\The.Mule.2014.HDRip.CINEMANIA.avi
    Format                                   : AVI
    Format/Info                              : Audio Video Interleave
    File size                                : 1.46 GiB
    Duration                                 : 1h 42mn
    Overall bit rate                         : 2 038 Kbps
    Writing application                      : VirtualDubMod 1.5.10.2 (build 2542/release)
    Writing library                          : VirtualDubMod build 2542/release

    Video
    ID                                       : 0
    Format                                   : MPEG-4 Visual
    Format profile                           : Advanced Simple@L5
    Format settings, BVOP                    : 2
    Format settings, QPel                    : No
    Format settings, GMC                     : No warppoints
    Format settings, Matrix                  : Default (MPEG)
    Codec ID                                 : XVID
    Codec ID/Hint                            : XviD
    Duration                                 : 1h 42mn
    Bit rate                                 : 1 581 Kbps
    Width                                    : 720 pixels
    Height                                   : 304 pixels
    Display aspect ratio                     : 2.35:1
    Frame rate                               : 24.000 fps
    Color space                              : YUV
    Chroma subsampling                       : 4:2:0
    Bit depth                                : 8 bits
    Scan type                                : Progressive
    Compression mode                         : Lossy
    Bits/(Pixel*Frame)                       : 0.301
    Stream size                              : 1.13 GiB (78%)
    Writing library                          : XviD 1.2.1 (UTC 2008-12-04)

    Audio
    ID                                       : 1
    Format                                   : AC-3
    Format/Info                              : Audio Coding 3
    Mode extension                           : CM (complete main)
    Codec ID                                 : 2000
    Duration                                 : 1h 42mn
    Bit rate mode                            : Constant
    Bit rate                                 : 448 Kbps
    Channel(s)                               : 6 channels
    Channel positions                        : Front: L C R, Side: L R, LFE
    Sampling rate                            : 48.0 KHz
    Bit depth                                : 16 bits
    Compression mode                         : Lossy
    Stream size                              : 329 MiB (22%)
    Alignment                                : Split accross interleaves
    Interleave, duration                     : 42 ms (1.00 video frame)
    Interleave, preload duration             : 500 ms




    Скриншоты:



    piratbit.pw



  • Скачать Мул через торрент http://i66.fastpic.ru/big/2014/1215/ec/6c50e462d23ad795876b8accd956c7ec.jpg Скачать фильм Мул через торрент бесплантно в хорошем качестве Описание: История о наивном человеке, который согласился на перевозку наркотиков в своем желудке и был задержан федеральной полицией. Он, ... 9.2 10 5
    Торрент: Зарегистрирован [2014-12-15 05:48] · скачан: 266 раз
    Статус: √ проверено
    Размер: 1.46 GB
    Как cкачать? Как скачать Мул через торрент | UTorrent

    % Раздел Тема Автор DL S | L
    T Фильмы [HD 720p, 1080p] (Звук Cam, VO, DVO) [ 8.45 GB ] Мул / The Mule [2014 Австралия BDRip 1080p Любительский [den904 DeadSno] Ворон Скачать
    1 | 0
    T Фильмы [HD 720p, 1080p] (Звук Cam, VO, DVO) [ 4.7 GB ] Мул / The Mule [2014 Австралия BDRip 720p Любительский [den904 DeadSno] Ворон Скачать
    1 | 0
    Фильмы 2013 [DVDrip, WEB-DLRip, HDrip] [ 1.37 GB ] Мул / The Mule [2012 HDRip MVO лицензия] oleg8 Скачать
    1 | 0
    Фильмы (DVD фильмы) [ 5.44 GB ] Мул / The Mule [2012 DVD9] R5 voovaz Скачать
    1 | 0
    Фильмы [HD 720p, 1080p] (Хороший звук DUB, MVO) [ 3.9 GB ] Мул / The Mule [2012 BDRip 720p MVO лицензия] Sудья Скачать
    1 | 0

    28-11-2019 20:33  

    Отключить всю рекламу на сайте

    15-12-2014 18:12 Мул Скачать торрент  

    Ща заценим...piratbit.pw



    16-12-2014 14:17 Мул Скачать торрент  

    норм фильмpiratbit.pw



      Дорогой пользователь! Огромная просьба, поблагодарите релизера, оцените раздачу и оставьте свои комментарий, если Вы скачали Мул через торрент бесплатно! Внесите свою лепту в развитие PiratBit!
      Комментировать посты могут только пользователи прошедшие не сложную регистрацию
      Показать сообщения:    

      Мул через торрент
      Скачать бесплатно Мул
      Мул скачать торрент
      Мул смотреть онлайн
      Cкачать фильм Мул бесплатно
      Мул скачать торрент в хорошем качестве
      Мул смотреть онлайн бесплатно в хорошем качестве


      Вы не можете начинать темы
      Вы не можете отвечать на сообщения
      Вы не можете редактировать свои сообщения
      Вы не можете удалять свои сообщения
      Вы не можете голосовать в опросах
      Вы не можете прикреплять файлы к сообщениям
      Вы можете скачивать файлы