2 сезон

iTunes

1 сезон

1

iTunes

iTunes

iTunes

1 сезон

RePack

30

ИГРА 18+

pack

ВАЖНО

!!Акция!!

Alien_RageХит недели

RePack

MK11
pack

Забери бонус

RePack

jed

!!Акция!!

Alien_Rage

RePack

fifa19

RePack

Assassins Creed: Odyssey

RePack

NEED FOR SPEED™ PAYBACK

4 сезон

9 сезон

Бесстыжие 9 сезон

Все сериалы

все сериалы на PB.wtf

RePack

FAR CRY 5
  

Газгольдер: Фильм (Иван Курский) [2014, Россия, криминал, WEBRip] piratbit.pw

Газгольдер: Фильм через торрент piratbit.pw

Размер: 2.05 GB | Добавлен: 5 лет 10 мес. назад | Торрент скачан:638 раз
Скачать  

13-12-2014 18:20 Газгольдер: Фильм Скачать торрент  

Газгольдер: Фильм

Год выпуска: 2014
Страна: Россия
Жанр: криминал
Продолжительность: 02:02:42
Перевод: Не требуется
Субтитры: Отсутствует
Режиссер: Иван Курский
В ролях:


Баста, Вадик QП, Олег Груз, Виталий Буслаев (Виктор Паршин), Григорий Зельтсер (Игорь Паршин), Михаил Скачков (Андрей Паршин / молодой дед Паршин), Екатерина Бестужева (Катя), Юрий Рейнеке (Герман Скориков), Гуф, Айза Долматова, Тати, Тимофей Благочевский (Тима)

Описание:
У Басты и его друзей произошел серьезный конфликт с могущественным кланом силовиков. Ребятам предстоит найти выход из сложившейся ситуации, включив всю мощь творческой энергии.

Рейтинг:

Качество: WEBRip
Формат: AVI
Видео кодек:XviD
Аудио кодек:AC3
Видео: XviD, 720x304 (2.35:1), 2131 kbps, 24 fps, 0,406 bpp
Аудио: AC3 / 2.0 / 48 kHz / 256 kbps / 16 bit

General
Complete name : D:\Users\_KaisiK_\uTorrent\КИНО\GazGolder (2014) WEB-DLRip.avi
Format : AVI
Format/Info : Audio Video Interleave
Format profile : OpenDML
Format settings : rec
File size : 2.05 GiB
Duration : 2h 2mn
Overall bit rate : 2 393 Kbps
Writing application : AVI-Mux GUI 1.17.8.3, Feb 16 201019:42:50

Video
ID : 0
Format : MPEG-4 Visual
Format profile : Advanced Simple@L5
Format settings, BVOP : No
Format settings, QPel : No
Format settings, GMC : No warppoints
Format settings, Matrix : Default (H.263)
Codec ID : XVID
Codec ID/Hint : XviD
Duration : 2h 2mn
Bit rate : 2 132 Kbps
Width : 720 pixels
Height : 304 pixels
Display aspect ratio : 2.35:1
Frame rate : 24.000 fps
Color space : YUV
Chroma subsampling : 4:2:0
Bit depth : 8 bits
Scan type : Progressive
Compression mode : Lossy
Bits/(Pixel*Frame) : 0.406
Stream size : 1.83 GiB (89%)
Writing library : XviD 62

Audio
ID : 1
Format : AC-3
Format/Info : Audio Coding 3
Mode extension : CM (complete main)
Codec ID : 2000
Duration : 2h 2mn
Bit rate mode : Constant
Bit rate : 256 Kbps
Channel(s) : 2 channels
Channel positions : Front: L R
Sampling rate : 48.0 KHz
Bit depth : 16 bits
Compression mode : Lossy
Stream size : 225 MiB (11%)
Alignment : Aligned on interleaves
Interleave, duration : 64 ms (1.54 video frames)
Interleave, preload duration : 192 ms
Title : Rus_224

[/code]
piratbit.pw



Скачать Газгольдер: Фильм через торрент http://i68.fastpic.ru/big/2014/1213/01/bedcb3ee70279807aedf4f2026e6bc01.png Скачать фильм Газгольдер: Фильм через торрент бесплантно в хорошем качестве Описание: У Басты и его друзей произошел серьезный конфликт с могущественным кланом силовиков. Ребятам предстоит найти выход из сложившейся ... 8.3 10 12
Торрент: Зарегистрирован [2014-12-13 18:20] · скачан: 638 раз
Статус: T временная
Размер: 2.05 GB
Как cкачать? Как скачать Газгольдер: Фильм через торрент | qTorrent

% Раздел Тема Автор DL S | L
Наши новые фильмы 2014 [ 2.05 GB ] Газгольдер: Фильм [2014 WEB-DLRip Оригинал Ворон Скачать
1 | 0
T Наши новые фильмы 2014 [ 1.45 GB ] Газгольдер: Фильм [2014 WEBRip] Seedtank Скачать
1 | 0
# Наши новые фильмы 2014 [ 1.27 GB ] Газгольдер: Фильм [2014 WEBRip 720p] maugli89 Скачать
1 | 0

28-11-2019 20:33  

Отключить всю рекламу на сайте

14-12-2014 08:58 Газгольдер: Фильм Скачать торрент  

Ожидал, если честно, большего. А получилось по укурке снятое гвонокино.piratbit.pw



14-12-2014 09:08 Газгольдер: Фильм Скачать торрент  

думаю , что шлак , смотреть не будуpiratbit.pw



21-12-2014 08:40 Газгольдер: Фильм Скачать торрент  

Это ахуенное кино, с глубоким смыслом, с нормальным сюжетом! Всем советую посмотреть, а потом думать!piratbit.pw



    Дорогой пользователь! Огромная просьба, поблагодарите релизера, оцените раздачу и оставьте свои комментарий, если Вы скачали Газгольдер: Фильм через торрент бесплатно! Внесите свою лепту в развитие PiratBit!
    Комментировать посты могут только пользователи прошедшие не сложную регистрацию
    Показать сообщения:    

    Газгольдер: Фильм через торрент
    Скачать бесплатно Газгольдер: Фильм
    Газгольдер: Фильм скачать торрент
    Газгольдер: Фильм смотреть онлайн
    Cкачать фильм Газгольдер: Фильм бесплатно
    Газгольдер: Фильм скачать торрент в хорошем качестве
    Газгольдер: Фильм смотреть онлайн бесплатно в хорошем качестве


    Вы не можете начинать темы
    Вы не можете отвечать на сообщения
    Вы не можете редактировать свои сообщения
    Вы не можете удалять свои сообщения
    Вы не можете голосовать в опросах
    Вы не можете прикреплять файлы к сообщениям
    Вы можете скачивать файлы