1 сезон

1 сезон

iTunes

1

КиноПоиск HD

Кинопоиск HD

iTunes

13

1 сезон

RePack

30

Новинка

ВАЖНО

ИГРА 18+

pack

RePack

MK11
pack

Легкие деньги

RePack

jed

RePack

fifa19

RePack

RDR2

RePack

NEED FOR SPEED™ PAYBACK

4 сезон

9 сезон

Бесстыжие 9 сезон

Все сериалы

все сериалы на PB.wtf

RePack

FAR CRY 5
  
Magnet ссылка

Великий уравнитель / The Equalizer (Антуан Фукуа ) [2014, боевик, триллер, криминал, BDRip 1080p, Авторский (одноголосый) Дмитрий Есарев] piratbit.pw

Великий уравнитель через торрент piratbit.pw

Размер: 12.62 GB | Добавлен: 6 лет 4 мес. назад | Торрент скачан:155 раз
Скачать  

13-12-2014 06:22 Великий уравнитель Скачать торрент  


Великий уравнитель / The Equalizer
«What do you see when you look at me?»

Год выпуска:2014
Страна: США
Жанр:боевик, триллер, криминал
Продолжительность: 02:12:31
Перевод:Авторский (одноголосый)Дмитрий Есарев
Субтитры: Английские
Режиссер:Антуан Фукуа

  • В ролях:

    Дензел Вашингтон (Robert McCall), Мартон Чокаш (Teddy), Хлоя Грейс Морец (Teri), Дэвид Харбор (Masters), Хейли Беннетт (Mandy), Билл Пуллман (Brian Plummer), Мелисса Лео (Susan Plummer), Дэвид Мюнье (Slavi), Джонни Скуртис (Ralphie), Алекс Видов (Tevi), Владимир Кулих (Vladimir Pushkin), Э. Роджер Митчелл (Lead Investigator)
  • Описание:
    Роберт МакКолл - бывший спецназовец. После увольнения со службы он собирается начать нормальную мирную жизнь, дав себе обещание больше никогда не брать в руки оружия. Но в один прекрасный момент он встречает молодую девушку, зарабатывающую на жизнь проституцией, которую на его глазах избивают бандиты и увозят в неизвестном направлении. Тогда он решает отыскать ее, после чего вступает в неравную схватку с русской мафией и продажными агентами ЦРУ. Ради справедливости он готов нарушить собственное обещание и применить оружие против людей, которые просто не заслуживают жить в этом мире...

  • Мировая премьера:7 сентября 2014

    Качество: BDRip 1080p
    Формат:MKV
    Видео кодек: AVC
    Аудио кодек:AC3, DTS
    Видео: 9154 Кбит/с, 1920x808, 23,976 fps
    Аудио №1: русский / DTS, 6 ch, 1536 Кбит/c / 48,0 КГц || Есарев (ненормативный)
    Аудио №2: русский / DTS, 6 ch, 1536 Кбит/c / 48,0 КГц || Есарев (цензурный)
    Аудио №3: английский / DTS, 6 ch, 1536 Кбит/c / 48,0 КГц
    Навигация по главам: есть
    Сэмпл: Скачать http://multi-up.com/1020155


    Код:

    Общее
    Уникальный идентификатор                 : 217759198300589963800241915818726776954 (0xA3D2E564AA6A3AB5B9319E662221E07A)
    Полное имя                               : G:\4\The Equalizer.2014.BDRip.1080p.AVO.Esarev.mkv
    Формат                                   : Matroska
    Версия формата                           : Version 4 / Version 2
    Размер файла                             : 12,6 Гбайт
    Продолжительность                        : 2 ч. 12 м.
    Общий поток                              : 13,7 Мбит/сек
    Название фильма                          : Релиз Переулка Переводмана
    Дата кодирования                         : UTC 2014-12-13 03:07:44
    Программа кодирования                    : mkvmerge v7.3.0 ('Nouages') 64bit built on Oct 22 2014 18:53:34
    Библиотека кодирования                   : libebml v1.3.0 + libmatroska v1.4.1
    DURATION                                 : 02:12:02.923000000
    NUMBER_OF_FRAMES                         : 742774
    NUMBER_OF_BYTES                          : 1495204062
    _STATISTICS_WRITING_APP                  : mkvmerge v7.3.0 ('Nouages') 64bit built on Oct 22 2014 18:53:34
    _STATISTICS_WRITING_DATE_UTC             : 2014-12-13 03:07:44
    _STATISTICS_TAGS                         : BPS DURATION NUMBER_OF_FRAMES NUMBER_OF_BYTES

    Видео
    Идентификатор                            : 1
    Формат                                   : AVC
    Формат/Информация                        : Advanced Video Codec
    Профиль формата                          : High@L4.1
    Параметр CABAC формата                   : Да
    Параметр ReFrames формата                : 5 кадров
    Идентификатор кодека                     : V_MPEG4/ISO/AVC
    Продолжительность                        : 2 ч. 12 м.
    Битрейт                                  : 9154 Кбит/сек
    Ширина                                   : 1920 пикселей
    Высота                                   : 808 пикселей
    Соотношение сторон                       : 2,40:1
    Режим частоты кадров                     : Постоянный
    Частота кадров                           : 23,976 кадра/сек
    Цветовое пространство                    : YUV
    Субдискретизация насыщенности            : 4:2:0
    Битовая глубина                          : 8 бит
    Тип развёртки                            : Прогрессивная
    Бит/(Пиксели*Кадры)                      : 0.246
    Размер потока                            : 8,19 Гбайт (65%)
    Библиотека кодирования                   : x264 core 142 r2479 dd79a61
    Настройки программы                      : cabac=1 / ref=5 / deblock=1:0:0 / analyse=0x3:0x133 / me=umh / subme=7 / psy=1 / psy_rd=1.00:0.00 / mixed_ref=1 / me_range=16 / chroma_me=1 / trellis=1 / 8x8dct=1 / cqm=0 / deadzone=21,11 / fast_pskip=0 / chroma_qp_offset=-2 / threads=18 / lookahead_threads=3 / sliced_threads=0 / nr=0 / decimate=1 / interlaced=0 / bluray_compat=0 / constrained_intra=0 / bframes=3 / b_pyramid=2 / b_adapt=1 / b_bias=0 / direct=1 / weightb=1 / open_gop=0 / weightp=2 / keyint=250 / keyint_min=23 / scenecut=40 / intra_refresh=0 / rc_lookahead=40 / rc=2pass / mbtree=1 / bitrate=9154 / ratetol=1.0 / qcomp=0.60 / qpmin=0 / qpmax=69 / qpstep=4 / cplxblur=20.0 / qblur=0.5 / ip_ratio=1.40 / aq=1:1.00
    Язык                                     : English
    Default                                  : Да
    Forced                                   : Нет
    DURATION                                 : 02:12:02.928000000
    NUMBER_OF_FRAMES                         : 189960
    NUMBER_OF_BYTES                          : 9064587496
    _STATISTICS_WRITING_APP                  : mkvmerge v7.3.0 ('Nouages') 64bit built on Oct 22 2014 18:53:34
    _STATISTICS_WRITING_DATE_UTC             : 2014-12-13 03:07:44
    _STATISTICS_TAGS                         : BPS DURATION NUMBER_OF_FRAMES NUMBER_OF_BYTES

    Аудио #1
    Идентификатор                            : 2
    Формат                                   : DTS
    Формат/Информация                        : Digital Theater Systems
    Режим                                    : 16
    Параметр Endianness формата              : Big
    Идентификатор кодека                     : A_DTS
    Продолжительность                        : 2 ч. 12 м.
    Вид битрейта                             : Постоянный
    Битрейт                                  : 1510 Кбит/сек
    Каналы                                   : 6 каналов
    Расположение каналов                     : Front: L C R, Side: L R, LFE
    Частота                                  : 48,0 КГц
    Битовая глубина                          : 24 бит
    Метод сжатия                             : С потерями
    Размер потока                            : 1,39 Гбайт (11%)
    Заголовок                                : Есарев (ненормативный)
    Язык                                     : Russian
    Default                                  : Да
    Forced                                   : Нет

    Аудио #2
    Идентификатор                            : 3
    Формат                                   : DTS
    Формат/Информация                        : Digital Theater Systems
    Режим                                    : 16
    Параметр Endianness формата              : Big
    Идентификатор кодека                     : A_DTS
    Продолжительность                        : 2 ч. 12 м.
    Вид битрейта                             : Постоянный
    Битрейт                                  : 1510 Кбит/сек
    Каналы                                   : 6 каналов
    Расположение каналов                     : Front: L C R, Side: L R, LFE
    Частота                                  : 48,0 КГц
    Битовая глубина                          : 24 бит
    Метод сжатия                             : С потерями
    Размер потока                            : 1,39 Гбайт (11%)
    Заголовок                                : Есарев (цензурный)
    Язык                                     : Russian
    Default                                  : Нет
    Forced                                   : Нет

    Аудио #3
    Идентификатор                            : 4
    Формат                                   : DTS
    Формат/Информация                        : Digital Theater Systems
    Режим                                    : 16
    Параметр Endianness формата              : Big
    Идентификатор кодека                     : A_DTS
    Продолжительность                        : 2 ч. 12 м.
    Вид битрейта                             : Постоянный
    Битрейт                                  : 1509 Кбит/сек
    Каналы                                   : 6 каналов
    Расположение каналов                     : Front: L C R, Side: L R, LFE
    Частота                                  : 48,0 КГц
    Битовая глубина                          : 24 бит
    Метод сжатия                             : С потерями
    Размер потока                            : 1,39 Гбайт (11%)
    Язык                                     : English
    Default                                  : Нет
    Forced                                   : Нет

    Текст
    Идентификатор                            : 5
    Формат                                   : UTF-8
    Идентификатор кодека                     : S_TEXT/UTF8
    Идентификатор кодека/Информация          : UTF-8 Plain Text
    Заголовок                                : Forced
    Язык                                     : English
    Default                                  : Нет
    Forced                                   : Нет

    Меню
    00:00:00.000                             : en:00:00:00.000
    00:06:49.659                             : en:00:06:49.659
    00:13:03.574                             : en:00:13:03.574
    00:20:55.796                             : en:00:20:55.796
    00:25:48.755                             : en:00:25:48.755
    00:35:26.458                             : en:00:35:26.458
    00:46:32.123                             : en:00:46:32.123
    00:55:44.007                             : en:00:55:44.007
    01:03:59.419                             : en:01:03:59.419
    01:13:53.054                             : en:01:13:53.054
    01:20:58.729                             : en:01:20:58.729
    01:31:09.339                             : en:01:31:09.339
    01:38:37.745                             : en:01:38:37.745
    01:47:28.984                             : en:01:47:28.984
    01:55:38.265                             : en:01:55:38.265
    02:00:01.486                             : en:02:00:01.486

    Скриншоты:

    Срочно! Нужна помощь! Жмите

    © Оформление by Ворон
    piratbit.pw



  • Скачать Великий уравнитель через торрент https://pic.kartinco.top/images/6/ordi9.jpg Скачать фильм Великий уравнитель через торрент бесплантно в хорошем качестве Описание:Роберт МакКолл - бывший спецназовец. После увольнения со службы он собирается начать нормальную мирную жизнь, дав себе обещание ... 9.9 10 8
    Торрент: Зарегистрирован [2014-12-13 06:22] · скачан: 155 раз
    Статус: √ проверено
    Размер: 12.62 GB
    Как cкачать? Как скачать Великий уравнитель через торрент | UTorrent

    % Раздел Тема Автор DL S | L
    Ultra HD (UHD: 2K, 4K, 8K) — видео сверхвысокой чёткости [ 26.32 GB ] Великий уравнитель 2 / The Equalizer 2 [2018 UHD BDRip 2160p] [SDR] DUB + AVO [Дмитрий Есарев] sheker187 Скачать
    1 | 0
    Ultra HD (UHD: 2K, 4K, 8K) — видео сверхвысокой чёткости [ 14.37 GB ] Великий уравнитель 2 / The Equalizer 2 [2018 UHD BDRip 2160p] DUB + AVO [Дмитрий Есарев] sheker187 Скачать
    1 | 0


    Последний раз редактировалось: Ворон (2014-12-13 10:30), всего редактировалось 2 раз(а)

    28-11-2019 20:33  

    Отключить всю рекламу на сайте

    13-12-2014 06:56 Великий уравнитель Скачать торрент  

    Ах,какая прелесть!!Опять эта бессмертная"Русская Мафия"!Любимый жупел всех времён и народов! :rofle: rofl Этой самой "русской мафии"давно пора уже процент с Халивуда потребовать,за использование брэнда.piratbit.pw



    13-12-2014 07:16 Великий уравнитель Скачать торрент  

    Stopper68 писал(а):

    Ах,какая прелесть!!Опять эта бессмертная"Русская Мафия"!Любимый жупел всех времён и народов! :rofle: rofl Этой самой "русской мафии"давно пора уже процент с Халивуда потребовать,за использование брэнда.

    а кто вы думаете спонсирует съемки этих фильмов,та самая рашен мафия piratbit.pw



    13-12-2014 07:21 Великий уравнитель Скачать торрент  

    Ворон, матюги присутствуют :pleasantry: ? знаю что данный автор любит использовать их в неограниченном количестве piratbit.pw



    13-12-2014 08:57 Великий уравнитель Скачать торрент  

    народ, как перевод ? стоит качать ?piratbit.pw



    13-12-2014 09:29 Великий уравнитель Скачать торрент  

    killermax2013 писал(а):

    Ворон, матюги присутствуют :pleasantry: ? знаю что данный автор любит использовать их в неограниченном количестве

    А МедиаИнфо слабо взглянуть? :)

    Заголовок : Есарев (ненормативный)piratbit.pw



    13-12-2014 09:54 Великий уравнитель Скачать торрент  

    так тут же 3 дорожки а в описании 2piratbit.pw



      Дорогой пользователь! Огромная просьба, поблагодарите релизера, оцените раздачу и оставьте свои комментарий, если Вы скачали Великий уравнитель через торрент бесплатно! Внесите свою лепту в развитие PiratBit!
      Комментировать посты могут только пользователи прошедшие не сложную регистрацию
      Показать сообщения:    

      Великий уравнитель через торрент
      Скачать бесплатно Великий уравнитель
      Великий уравнитель скачать торрент
      Великий уравнитель смотреть онлайн
      Cкачать фильм Великий уравнитель бесплатно
      Великий уравнитель скачать торрент в хорошем качестве
      Великий уравнитель смотреть онлайн бесплатно в хорошем качестве


      Вы не можете начинать темы
      Вы не можете отвечать на сообщения
      Вы не можете редактировать свои сообщения
      Вы не можете удалять свои сообщения
      Вы не можете голосовать в опросах
      Вы не можете прикреплять файлы к сообщениям
      Вы можете скачивать файлы