1 сезон

3 сезон

iTunes

1

iTunes

DUB Netflix

iTunes

13

1 сезон

RePack

30

Deluxe

pack

Легкие деньги

ВАЖНО

ИГРА 18+

pack

RePack

MK11

RePack

jed

RePack

fifa19

RePack

RDR2

RePack

NEED FOR SPEED™ PAYBACK

4 сезон

9 сезон

Бесстыжие 9 сезон

Все сериалы

все сериалы на PB.wtf

RePack

FAR CRY 5

Anonymous, доброй ночи, мы не успеваем до 1 числа собрать деньги на оплату серверов, помогите нам пожалуйста в это трудное время. В качестве благодарности мы отключим Вам всю рекламу на сайте (укажите свой ник в строку Ваше имя)!

×
  
Magnet ссылка

С оружием в руках / Знает только Бог / By the Gun (Джеймс Моттерн / James Mottern) [2014, США, триллер, драма, криминал, WEB-DLRip, Любительский (одноголосый) [R.A.I.M.] piratbit.pw

С оружием в руках через торрент piratbit.pw

Размер: 1.46 GB | Добавлен: 6 лет 6 мес. назад | Торрент скачан:271 раз
Скачать  

12-12-2014 06:43 С оружием в руках Скачать торрент  

С оружием в руках / Знает только Бог / By the Gun
«Nick wanted to be a made man until he found a reason to get out»

  • Год выпуска: 2014
  • Страна: США
  • Жанр: триллер, драма, криминал
  • Продолжительность: 01:49:59
  • Перевод: Любительский (одноголосый) [R.A.I.M.]

  • Режиссер: Джеймс Моттерн / James Mottern
  • В ролях:

    Бен Барнс (Nick Tortano), Лейтон Мистер (Ali Matazano), Слэйн (George Mullins), Тоби Джонс (Jerry), Харви Кейтель (Salvatore Vitaglia), Талли Банта-Кэйн (Tommy), Пол Бен-Виктор (Vincent Tortano), Уильям Блумфилд (Mob Boss), Бонни Белль Скиннер (Melissa), Билли Конча (Mob Henchman), Ричи Костер (Tony Matazano), Джули Энн Доусон (Stripper)

  • Описание:
    Ник - молодой итальянец, проживающий в Бостоне. Он решил попасть в мафию, чтобы защитить свою семью и друзей, но он не представлял, что однажды ему понадобится выбраться оттуда, а сделать это будет не так просто...
  • Рейтинг:



  • Качество: WEB-DLRip
  • Формат: :AVI
  • Видео кодек: XviD
  • Аудио кодек: AC3
  • Видео: 720x304 (2.35:1), 1507 kbps, 23,976 fps, 0,287 bpp
  • Аудио: 5.1 / 48 kHz / 384 kbps / 16 bit
  • Релиз от: GEKADOL

    Код:

    General
    Complete name                            : D:\Фильмы\By.the.Gun.2014.L1.WEB-DLRip.1.46.GB.avi
    Format                                   : AVI
    Format/Info                              : Audio Video Interleave
    File size                                : 1.46 GiB
    Duration                                 : 1h 49mn
    Overall bit rate                         : 1 901 Kbps
    Writing application                      : VirtualDubMod 1.5.10.3 | www.virtualdub-fr.org || (build 2550/release)
    Writing library                          : VirtualDubMod build 2550/release

    Video
    ID                                       : 0
    Format                                   : MPEG-4 Visual
    Format profile                           : Advanced Simple@L5
    Format settings, BVOP                    : 1
    Format settings, QPel                    : No
    Format settings, GMC                     : No warppoints
    Format settings, Matrix                  : Custom
    Codec ID                                 : XVID
    Codec ID/Hint                            : XviD
    Duration                                 : 1h 49mn
    Bit rate                                 : 1 508 Kbps
    Width                                    : 720 pixels
    Height                                   : 304 pixels
    Display aspect ratio                     : 2.35:1
    Frame rate                               : 23.976 fps
    Color space                              : YUV
    Chroma subsampling                       : 4:2:0
    Bit depth                                : 8 bits
    Scan type                                : Progressive
    Compression mode                         : Lossy
    Bits/(Pixel*Frame)                       : 0.287
    Stream size                              : 1.16 GiB (79%)
    Writing library                          : XviD 73

    Audio
    ID                                       : 1
    Format                                   : AC-3
    Format/Info                              : Audio Coding 3
    Mode extension                           : CM (complete main)
    Codec ID                                 : 2000
    Duration                                 : 1h 49mn
    Bit rate mode                            : Constant
    Bit rate                                 : 384 Kbps
    Channel(s)                               : 6 channels
    Channel positions                        : Front: L C R, Side: L R, LFE
    Sampling rate                            : 48.0 KHz
    Bit depth                                : 16 bits
    Compression mode                         : Lossy
    Stream size                              : 302 MiB (20%)
    Alignment                                : Split accross interleaves
    Interleave, duration                     : 42 ms (1.00 video frame)
    Interleave, preload duration             : 500 ms


    Присутствует НЕНОРМАТИВНАЯ лексика! Весь фильм!
    Скриншоты:



    piratbit.pw



  • Скачать С оружием в руках через торрент https://pic1.kartinco.top/images/81/oyat2.jpg Скачать фильм С оружием в руках через торрент бесплантно в хорошем качестве Описание: Ник - молодой итальянец, проживающий в Бостоне. Он решил попасть в мафию, чтобы защитить свою семью и друзей, но он не ... 10 10 4
    Торрент: Зарегистрирован [2014-12-12 06:43] · скачан: 271 раз
    Статус: T временная
    Размер: 1.46 GB
    Как cкачать? Как скачать С оружием в руках через торрент | UTorrent

    28-11-2019 20:33  

    Отключить всю рекламу на сайте

    13-12-2014 01:08 С оружием в руках Скачать торрент  

    кто смотрел .. стоит качать ?piratbit.pw



      Дорогой пользователь! Огромная просьба, поблагодарите релизера, оцените раздачу и оставьте свои комментарий, если Вы скачали С оружием в руках через торрент бесплатно! Внесите свою лепту в развитие PiratBit!
      Комментировать посты могут только пользователи прошедшие не сложную регистрацию
      Показать сообщения:    

      С оружием в руках через торрент
      Скачать бесплатно С оружием в руках
      С оружием в руках скачать торрент
      С оружием в руках смотреть онлайн
      Cкачать фильм С оружием в руках бесплатно
      С оружием в руках скачать торрент в хорошем качестве
      С оружием в руках смотреть онлайн бесплатно в хорошем качестве


      Вы не можете начинать темы
      Вы не можете отвечать на сообщения
      Вы не можете редактировать свои сообщения
      Вы не можете удалять свои сообщения
      Вы не можете голосовать в опросах
      Вы не можете прикреплять файлы к сообщениям
      Вы можете скачивать файлы