Ссылка на приватное зеркало нашего сайта всего за 1$. Внимание количество ограничено!!!

2 сезон

iTunes

1 сезон

1

iTunes

iTunes

iTunes

1 сезон

RePack

30

ИГРА 18+

pack

ВАЖНО

!!Акция!!

Alien_RageХит недели

RePack

MK11
pack

Забери бонус

RePack

jed

!!Акция!!

Alien_Rage

RePack

fifa19

RePack

Assassins Creed: Odyssey

RePack

NEED FOR SPEED™ PAYBACK

4 сезон

9 сезон

Бесстыжие 9 сезон

Все сериалы

все сериалы на PB.wtf

RePack

FAR CRY 5
  

Газгольдер: Фильм (Иван Курский ) [2014, криминал, WEBRip 720p] piratbit.pw

Газгольдер: Фильм через торрент piratbit.pw

Размер: 1.27 GB | Добавлен: 5 лет 10 мес. назад | Торрент скачан:1100 раз
Скачать  

12-12-2014 03:11 Газгольдер: Фильм Скачать торрент  

Газгольдер: Фильм

Год выпуска: 2014
Страна: Россия
Жанр: криминал
Продолжительность: 02:02:42
Перевод: Не требуется
Режиссер: Иван Курский
В ролях: Баста, Вадик QП, Олег Груз, Виталий Буслаев (Виктор Паршин), Григорий Зельтсер (Игорь Паршин), Михаил Скачков (Андрей Паршин / молодой дед Паршин), Екатерина Бестужева (Катя), Юрий Рейнеке (Герман Скориков), Гуф, Айза Долматова, Тати, Тимофей Благочевский (Тима)
Описание:
У Басты и его друзей произошел серьезный конфликт с могущественным кланом силовиков. Ребятам предстоит найти выход из сложившейся ситуации, включив всю мощь творческой энергии.
Рейтинг:

Качество: WEBRip 720p
Формат: MPEG-4
Видео кодек: AVC
Аудио кодек:AAC LC
Видео: AVC, 1280x720 (16:9), 1283 kbps, 25 fps, 0,056 bpp
Аудио: AAC LC / 2.0 / 44 kHz / 192 kbps /

Код:

General
Complete name                            : D:\Торенты\#ГазгольдерФильм.mp4
Format                                   : MPEG-4
Format profile                           : Base Media / Version 2
Codec ID                                 : mp42
File size                                : 1.27 GiB
Duration                                 : 2h 2mn
Overall bit rate mode                    : Variable
Overall bit rate                         : 1 478 Kbps
Encoded date                             : UTC 2014-12-09 19:25:22
Tagged date                              : UTC 2014-12-09 19:25:22
gsst                                     : 0
gstd                                     : 7362976
gssd                                     : BD4142285HH1418350410739710
gshh                                     : r2---sn-gvnuxaxjvh-v8cl.googlevideo.com

Video
ID                                       : 1
Format                                   : AVC
Format/Info                              : Advanced Video Codec
Format profile                           : High@L3.1
Format settings, CABAC                   : Yes
Format settings, ReFrames                : 1 frame
Format settings, GOP                     : M=1, N=60
Codec ID                                 : avc1
Codec ID/Info                            : Advanced Video Coding
Duration                                 : 2h 2mn
Bit rate                                 : 1 284 Kbps
Maximum bit rate                         : 5 091 Kbps
Width                                    : 1 280 pixels
Height                                   : 720 pixels
Display aspect ratio                     : 16:9
Frame rate mode                          : Constant
Frame rate                               : 25.000 fps
Color space                              : YUV
Chroma subsampling                       : 4:2:0
Bit depth                                : 8 bits
Scan type                                : Progressive
Bits/(Pixel*Frame)                       : 0.056
Stream size                              : 1.10 GiB (87%)
Tagged date                              : UTC 2014-12-09 19:27:30

Audio
ID                                       : 2
Format                                   : AAC
Format/Info                              : Advanced Audio Codec
Format profile                           : LC
Codec ID                                 : 40
Duration                                 : 2h 2mn
Bit rate mode                            : Variable
Bit rate                                 : 192 Kbps
Maximum bit rate                         : 202 Kbps
Channel(s)                               : 2 channels
Channel positions                        : Front: L R
Sampling rate                            : 44.1 KHz
Compression mode                         : Lossy
Stream size                              : 169 MiB (13%)
Title                                    : IsoMedia File Produced by Google, 5-11-2011
Encoded date                             : UTC 2014-12-09 19:26:36
Tagged date                              : UTC 2014-12-09 19:27:30

piratbit.pw



Скачать Газгольдер: Фильм через торрент http://i65.fastpic.ru/big/2014/1213/9e/38e3ed4ce22e5a7e36bb371a2d26259e.jpg Скачать фильм Газгольдер: Фильм через торрент бесплантно в хорошем качестве Описание: У Басты и его друзей произошел серьезный конфликт с могущественным кланом силовиков. Ребятам предстоит найти выход из сложившейся ... 9.4 10 32
Info! Золотая раздача, скачанное не засчитывается.
Торрент: Зарегистрирован [2014-12-12 03:11] · скачан: 1 100 раз
Статус: # сомнительно
Размер: 1.27 GB
Как cкачать? Как скачать Газгольдер: Фильм через торрент | qTorrent

% Раздел Тема Автор DL S | L
Наши новые фильмы 2014 [ 2.05 GB ] Газгольдер: Фильм [2014 WEB-DLRip Оригинал Ворон Скачать
1 | 0
T Наши новые фильмы 2014 [ 1.45 GB ] Газгольдер: Фильм [2014 WEBRip] Seedtank Скачать
1 | 0
T Наши новые фильмы 2014 [ 2.05 GB ] Газгольдер: Фильм [2014 Россия WEBRip] _KaisiK_ Скачать
1 | 0

28-11-2019 20:33  

Отключить всю рекламу на сайте

12-12-2014 03:22 Газгольдер: Фильм Скачать торрент  

На раздаче 24 часа. Приятного просмотра piratbit.pw



12-12-2014 03:53 Газгольдер: Фильм Скачать торрент  

"Премьера в мире" Прикольно.piratbit.pw



12-12-2014 04:52 Газгольдер: Фильм Скачать торрент  

...piratbit.pw





Последний раз редактировалось: Leha_vasiliev (2014-12-12 13:36), всего редактировалось 1 раз

12-12-2014 05:06 Газгольдер: Фильм Скачать торрент  

Вчера посмотрел. Ничё так кинцо.piratbit.pw



12-12-2014 09:20 Газгольдер: Фильм Скачать торрент  

а бюджет фильма в рублях ?piratbit.pw



12-12-2014 17:10 Газгольдер: Фильм Скачать торрент  

такое Вно просто ппцpiratbit.pw



12-12-2014 20:21 Газгольдер: Фильм Скачать торрент  

У шлепок!piratbit.pw



12-12-2014 21:31 Газгольдер: Фильм Скачать торрент  

палюбому качаемpiratbit.pw



13-12-2014 10:15 Газгольдер: Фильм Скачать торрент  

Гуф сдох.Гуф-сдох....Реп-кал!piratbit.pw





Последний раз редактировалось: Stopper68 (2014-12-15 14:08), всего редактировалось 1 раз

15-12-2014 01:24 Газгольдер: Фильм Скачать торрент  

Stopper68 писал(а):

Гуф сдох.Гуф-сдох....

мозг у тебя здох!piratbit.pw



15-12-2014 17:27 Газгольдер: Фильм Скачать торрент  

Мда. Слушаю иногда Басту, Гуфа. Но фильм полное го...но. :cansored: :cansored: :cansored:piratbit.pw



23-12-2014 14:06 Газгольдер: Фильм Скачать торрент  

Не тратьте на этот фильм время, туфта полная!piratbit.pw



27-12-2014 13:36 Газгольдер: Фильм Скачать торрент  

Видеомусорpiratbit.pw



    Дорогой пользователь! Огромная просьба, поблагодарите релизера, оцените раздачу и оставьте свои комментарий, если Вы скачали Газгольдер: Фильм через торрент бесплатно! Внесите свою лепту в развитие PiratBit!
    Комментировать посты могут только пользователи прошедшие не сложную регистрацию
    Показать сообщения:    

    Газгольдер: Фильм через торрент
    Скачать бесплатно Газгольдер: Фильм
    Газгольдер: Фильм скачать торрент
    Газгольдер: Фильм смотреть онлайн
    Cкачать фильм Газгольдер: Фильм бесплатно
    Газгольдер: Фильм скачать торрент в хорошем качестве
    Газгольдер: Фильм смотреть онлайн бесплатно в хорошем качестве


    Вы не можете начинать темы
    Вы не можете отвечать на сообщения
    Вы не можете редактировать свои сообщения
    Вы не можете удалять свои сообщения
    Вы не можете голосовать в опросах
    Вы не можете прикреплять файлы к сообщениям
    Вы можете скачивать файлы