Ссылка на приватное зеркало нашего сайта всего за 1$. Внимание количество ограничено!!!

2 сезон

iTunes

1 сезон

1

iTunes

iTunes

iTunes

1 сезон

RePack

30

ИГРА 18+

pack

ВАЖНО

!!Акция!!

Alien_RageХит недели

RePack

MK11
pack

Забери бонус

RePack

jed

!!Акция!!

Alien_Rage

RePack

fifa19

RePack

Assassins Creed: Odyssey

RePack

NEED FOR SPEED™ PAYBACK

4 сезон

9 сезон

Бесстыжие 9 сезон

Все сериалы

все сериалы на PB.wtf

RePack

FAR CRY 5
  

Sex, кофе, сигареты (Сергей Ольденбург-Свинцов) [2014, Россия, драма, комедия, WEB-DLRip, [Лицензия / iTunes] piratbit.pw

Sex, кофе, сигареты через торрент piratbit.pw

Размер: 1.36 GB | Добавлен: 5 лет 10 мес. назад | Торрент скачан:1731 раз
Скачать  

11-12-2014 02:04 Sex, кофе, сигареты Скачать торрент  

Sex, кофе, сигареты
«Комедия для взрослых»


  • Год выпуска: 2014
  • Страна: Россия
  • Жанр: драма, комедия
  • Продолжительность: 01:23:58
  • Перевод: [Лицензия / iTunes]

  • Режиссер: Сергей Ольденбург-Свинцов
  • В ролях:

    Анна Чиповская, Антон Шагин, Кирилл Кяро, Роман Виктюк, Анна Старшенбаум, Кирилл Грацинский, Игорь Сергеев, Лидия Федосеева-Шукшина, Александр Баширов, Александр Песков, Евдокия Германова, Алексей Вертков

  • Описание:
    Кого только не встретишь в московских ресторанах!
    Вам кажется - люди приходят сюда, чтобы насладиться вкусной едой или ароматным кофе с сигаретой? Отнюдь... Они приходят в рестораны, потому что здесь кипит бурная жизнь!
    Здесь покупают и продают кофейные плантации, здесь орудуют ловкие карманники и хладнокровные убийцы, здесь пишут диссертации о многообразии сексуальных отношений в мире насекомых...
    Здесь в укромных местах возникают мимолетные связи, здесь находят свою единственную любовь или расстаются навсегда.
  • Рейтинг:



  • Качество: WEB-DLRip
  • Формат: :AVI
  • Видео кодек: XviD
  • Аудио кодек: AC3
  • Видео: 720x304 (2.35:1), 1933 kbps, 25 fps, 0,353 bpp
  • Аудио: 5.1 / 48 kHz / 384 kbps / 16 bit
  • Релиз от: GEKADOL

    Код:

    General
    Complete name                            : I:\S3x.k0f3.s1garety.2014.O.WEB-DLRip.1400MB.avi
    Format                                   : AVI
    Format/Info                              : Audio Video Interleave
    File size                                : 1.36 GiB
    Duration                                 : 1h 23mn
    Overall bit rate                         : 2 327 Kbps
    Writing application                      : VirtualDubMod 1.5.10.3 | www.virtualdub-fr.org || (build 2550/release)
    Writing library                          : VirtualDubMod build 2550/release

    Video
    ID                                       : 0
    Format                                   : MPEG-4 Visual
    Format profile                           : Advanced Simple@L5
    Format settings, BVOP                    : 2
    Format settings, QPel                    : No
    Format settings, GMC                     : No warppoints
    Format settings, Matrix                  : Default (MPEG)
    Codec ID                                 : XVID
    Codec ID/Hint                            : XviD
    Duration                                 : 1h 23mn
    Bit rate                                 : 1 934 Kbps
    Width                                    : 720 pixels
    Height                                   : 304 pixels
    Display aspect ratio                     : 2.35:1
    Frame rate                               : 25.000 fps
    Color space                              : YUV
    Chroma subsampling                       : 4:2:0
    Bit depth                                : 8 bits
    Scan type                                : Progressive
    Compression mode                         : Lossy
    Bits/(Pixel*Frame)                       : 0.353
    Stream size                              : 1.13 GiB (83%)
    Writing library                          : XviD 1.2.1 (UTC 2008-12-04)

    Audio
    ID                                       : 1
    Format                                   : AC-3
    Format/Info                              : Audio Coding 3
    Mode extension                           : CM (complete main)
    Codec ID                                 : 2000
    Duration                                 : 1h 23mn
    Bit rate mode                            : Constant
    Bit rate                                 : 384 Kbps
    Channel(s)                               : 6 channels
    Channel positions                        : Front: L C R, Side: L R, LFE
    Sampling rate                            : 48.0 KHz
    Bit depth                                : 16 bits
    Compression mode                         : Lossy
    Stream size                              : 231 MiB (16%)
    Alignment                                : Split accross interleaves
    Interleave, duration                     : 40 ms (1.00 video frame)
    Interleave, preload duration             : 500 ms


    Скриншоты:



    piratbit.pw



  • Скачать Sex, кофе, сигареты через торрент http://i66.fastpic.ru/big/2014/1211/d3/0f4ffd6a52a22ca35b70437ac99819d3.jpg Скачать фильм Sex, кофе, сигареты через торрент бесплантно в хорошем качестве Описание: Кого только не встретишь в московских ресторанах!Вам кажется - люди приходят сюда, чтобы насладиться вкусной едой или ароматным ... 8.4 10 32
    Info! Золотая раздача, скачанное не засчитывается.
    Торрент: Зарегистрирован [2014-12-11 02:04] · скачан: 1 731 раз
    Статус: √ проверено
    Размер: 1.36 GB
    Как cкачать? Как скачать Sex, кофе, сигареты через торрент | qTorrent

    28-11-2019 20:33  

    Отключить всю рекламу на сайте

    11-12-2014 09:53 Sex, кофе, сигареты Скачать торрент  

    :curtsey: :curtsey: worry :cansored: фигня полнаяpiratbit.pw



    11-12-2014 17:18 Sex, кофе, сигареты Скачать торрент  

    Российский кинематограф - интересный предмет.
    Благо, что он есть, но лучше когда его нет.piratbit.pw



    11-12-2014 17:24 Sex, кофе, сигареты Скачать торрент  

    та да,им ток сериалы лепитьpiratbit.pw



    05-01-2015 00:57 Sex, кофе, сигареты Скачать торрент  

    Вторая чать будет 20 лет спустя называться: Гонорея, стенокардия, рак легкихpiratbit.pw



    14-01-2015 04:34 Sex, кофе, сигареты Скачать торрент  

    ну и фигня полнейшаяpiratbit.pw



    18-08-2015 03:15 Sex, кофе, сигареты Скачать торрент  

    так стоит качать?piratbit.pw



      Дорогой пользователь! Огромная просьба, поблагодарите релизера, оцените раздачу и оставьте свои комментарий, если Вы скачали Sex, кофе, сигареты через торрент бесплатно! Внесите свою лепту в развитие PiratBit!
      Комментировать посты могут только пользователи прошедшие не сложную регистрацию
      Показать сообщения:    

      Sex, кофе, сигареты через торрент
      Скачать бесплатно Sex, кофе, сигареты
      Sex, кофе, сигареты скачать торрент
      Sex, кофе, сигареты смотреть онлайн
      Cкачать фильм Sex, кофе, сигареты бесплатно
      Sex, кофе, сигареты скачать торрент в хорошем качестве
      Sex, кофе, сигареты смотреть онлайн бесплатно в хорошем качестве


      Вы не можете начинать темы
      Вы не можете отвечать на сообщения
      Вы не можете редактировать свои сообщения
      Вы не можете удалять свои сообщения
      Вы не можете голосовать в опросах
      Вы не можете прикреплять файлы к сообщениям
      Вы можете скачивать файлы