Ссылка на приватное зеркало нашего сайта всего за 1$. Внимание количество ограничено!!!

2 сезон

iTunes

1 сезон

1

iTunes

iTunes

iTunes

1 сезон

RePack

30

ИГРА 18+

pack

ВАЖНО

!!Акция!!

Alien_RageХит недели

RePack

MK11
pack

Забери бонус

RePack

jed

!!Акция!!

Alien_Rage

RePack

fifa19

RePack

Assassins Creed: Odyssey

RePack

NEED FOR SPEED™ PAYBACK

4 сезон

9 сезон

Бесстыжие 9 сезон

Все сериалы

все сериалы на PB.wtf

RePack

FAR CRY 5
  

Я не вернусь (Ильмар Рааг ) [2014, драма, DVDRip] piratbit.pw

Я не вернусь через торрент piratbit.pw

Размер: 1.27 GB | Добавлен: 5 лет 10 мес. назад | Торрент скачан:480 раз
Скачать  

06-12-2014 20:01 Я не вернусь Скачать торрент  


Я не вернусь


Год выпуска:2014
Страна: Казахстан, Россия, Эстония, Финляндия, Беларусь
Жанр:драма
Продолжительность:01:45:12
Перевод:Не требуется
Режиссер:Ильмар Рааг

  • В ролях:

    Полина Пушкарук (Аня), Вика Лобачева (Кристина), Андрей Астраханцев (Андрей Люциус), Сергей Яценюк (Дима Морозов), Ольга Белинская (Наталья Ивановна), Алла Еминцева (жена Андрея), Саша Лесникова (дочь Андрея), Юрий Орлов (следователь), Галина Мочалова (бабушка Кристины), Татьяна Зыкова (Кошка), Лиана Сергеева (Верка), Дарья Гаврилова (Алена)
  • Описание:
    Аня - красивая успешная девушка, учится в аспирантуре, читает лекции по Байрону, и у нее роман с профессором, но в один момент ее жизнь переворачивается, и чтобы избежать ложного обвинения, она убегает, прикинувшись подростком-беспризорником. Маска тинэйджера и знакомство с такой же отчаянной, но действительно маленькой Кристиной обращает бегство девушки в новый путь: заново пережив отрочество, Аня начисто переписывает свою жизнь.

  • Мировая премьера:18 апреля 2014

    Качество: DVDRip
    Формат:AVI
    Видео кодек: XviD
    Аудио кодек:AC3
    Видео: XviD, 720x304 (2.35:1), 1267 kbps, 25 fps,
    Аудио: AC3 / 5.1 / 48 kHz / 448 kbps / 16 bit


    Код:

    General
    Complete name                            : D:\Торенты\Я не вернусь  (2014) DVDrip.avi
    Format                                   : AVI
    Format/Info                              : Audio Video Interleave
    File size                                : 1.27 GiB
    Duration                                 : 1h 45mn
    Overall bit rate                         : 1 725 Kbps
    Writing library                          : VirtualDub build 32842/release

    Video
    ID                                       : 0
    Format                                   : MPEG-4 Visual
    Format profile                           : Advanced Simple@L5
    Format settings, BVOP                    : 1
    Format settings, QPel                    : No
    Format settings, GMC                     : No warppoints
    Format settings, Matrix                  : Default (H.263)
    Codec ID                                 : XVID
    Codec ID/Hint                            : XviD
    Duration                                 : 1h 45mn
    Bit rate                                 : 1267 Kbps
    Width                                    : 720 pixels
    Height                                   : 304 pixels
    Display aspect ratio                     : 2.35:1
    Frame rate                               : 25.000 fps
    Color space                              : YUV
    Chroma subsampling                       : 4:2:0
    Bit depth                                : 8 bits
    Scan type                                : Progressive
    Compression mode                         : Lossy
    Bits/(Pixel*Frame)                       : 0.219
    Stream size                              : 903 MiB (70%)
    Writing library                          : XviD 64

    Audio
    ID                                       : 1
    Format                                   : AC-3
    Format/Info                              : Audio Coding 3
    Mode extension                           : CM (complete main)
    Codec ID                                 : 2000
    Duration                                 : 1h 45mn
    Bit rate mode                            : Constant
    Bit rate                                 : 448 Kbps
    Channel(s)                               : 6 channels
    Channel positions                        : Front: L C R, Side: L R, LFE
    Sampling rate                            : 48.0 KHz
    Bit depth                                : 16 bits
    Compression mode                         : Lossy
    Stream size                              : 337 MiB (26%)
    Alignment                                : Split accross interleaves

    Скриншоты:

    Срочно! Нужна помощь! Жмите

    © Оформление by Ворон
    piratbit.pw



  • Скачать Я не вернусь через торрент http://pic.kartinco.top/images/6/ordi9.jpg Скачать фильм Я не вернусь через торрент бесплантно в хорошем качестве Описание:Аня - красивая успешная девушка, учится в аспирантуре, читает лекции по Байрону, и у нее роман с профессором, но в один момент ее ... 9.6 10 16
    Торрент: Зарегистрирован [2014-12-06 20:01] · скачан: 480 раз
    Статус: √ проверено
    Размер: 1.27 GB
    Как cкачать? Как скачать Я не вернусь через торрент | qTorrent

    % Раздел Тема Автор DL S | L
    Наши сериалы [ 33.64 GB ] Я вернусь / Сезон: 1 / Серии: 1-12 из 12 [2009 Военный HDTV 1080i] bober100 Скачать
    4 | 0
    Наши новые фильмы 2014 [ 1.67 GB ] Я не вернусь [2014 WEB-DLRip-AVC] Ворон Скачать
    1 | 0
    Наши новые фильмы 2014 [ 1.45 GB ] Я не вернусь [2014 WEB-DLRip] Ворон Скачать
    1 | 0
    T Наши фильмы (HD, WEB-DL 720p, 1080p) [ 3.23 GB ] Я не вернусь [2014 WEB-DL 1080p] Ворон Скачать
    1 | 0
    Наши новые фильмы 2014 [ 751 MB ] Я не вернусь [2014 WEB-DLRip] 19Diman Скачать
    1 | 0
    Наши новые фильмы 2014 [ 1.46 GB ] Я не вернусь [2014 Россия Эстония Финляндия Беларусь WEBRip] GEKADOL Скачать
    1 | 0

    28-11-2019 20:33  

    Отключить всю рекламу на сайте

    07-12-2014 06:38 Я не вернусь Скачать торрент  

    очень много положительных отзывов об этом фильме...piratbit.pw



    07-12-2014 14:21 Я не вернусь Скачать торрент  

    тяжелая драма.чтоб у наших детей такого неслучилось никогда.берегите их любите .спаси нас господь.piratbit.pw



      Дорогой пользователь! Огромная просьба, поблагодарите релизера, оцените раздачу и оставьте свои комментарий, если Вы скачали Я не вернусь через торрент бесплатно! Внесите свою лепту в развитие PiratBit!
      Комментировать посты могут только пользователи прошедшие не сложную регистрацию
      Показать сообщения:    

      Я не вернусь через торрент
      Скачать бесплатно Я не вернусь
      Я не вернусь скачать торрент
      Я не вернусь смотреть онлайн
      Cкачать фильм Я не вернусь бесплатно
      Я не вернусь скачать торрент в хорошем качестве
      Я не вернусь смотреть онлайн бесплатно в хорошем качестве


      Вы не можете начинать темы
      Вы не можете отвечать на сообщения
      Вы не можете редактировать свои сообщения
      Вы не можете удалять свои сообщения
      Вы не можете голосовать в опросах
      Вы не можете прикреплять файлы к сообщениям
      Вы можете скачивать файлы