1 сезон

3 сезон

iTunes

1

iTunes

DUB Netflix

iTunes

13

1 сезон

RePack

30

Deluxe

pack

Легкие деньги

ВАЖНО

ИГРА 18+

pack

RePack

MK11

RePack

jed

RePack

fifa19

RePack

RDR2

RePack

NEED FOR SPEED™ PAYBACK

4 сезон

9 сезон

Бесстыжие 9 сезон

Все сериалы

все сериалы на PB.wtf

RePack

FAR CRY 5

Anonymous, добрый вечер, мы не успеваем до 1 числа собрать деньги на оплату серверов, помогите нам пожалуйста в это трудное время. В качестве благодарности мы отключим Вам всю рекламу на сайте (укажите свой ник в строку Ваше имя)!

×
  
Magnet ссылка

Шедевры ужаса / Частицы таланта / Pieces of Talent (Джо Стойффер ) [2014, ужасы, триллер, DVDRip, Любительский (двухголосый)[den904, DeadSno] piratbit.pw

Шедевры ужаса через торрент piratbit.pw

Размер: 1.46 GB | Добавлен: 6 лет 6 мес. назад | Торрент скачан:309 раз
Скачать  

06-12-2014 17:15 Шедевры ужаса Скачать торрент  


Шедевры ужаса / Частицы таланта / Pieces of Talent
«Beautiful Horror»

Год выпуска:2014
Страна: США
Жанр:ужасы, триллер
Продолжительность:01:35:14
Перевод:Любительский (двухголосый)[den904, DeadSno]
Режиссер:Джо Стойффер

  • В ролях:

    David Long (David Long), Кристи Рэй (Charlotte), Тейлор Ковальски (Jay Harper), Барбара Уитман (Mary), Джон Стэффорд (Franklin Smallwood), Нат Паннинг (Nathan Glock), Джой Минк (Jenny), Шэйн Каллахан (Casting Guy), John Marchioni (Detective), Саймон Крист (Bowling Alley Brat), Шон О’Рурк (Ricky), Джонни Блэнтон (Strip Club Patron)
  • Описание:
    Действие фильма разворачивается в маленьком городке в Северной Каролине. Шарлотта, начинающая актриса, работает в ночном клубе официанткой, и еле сводит концы с концами. Однажды она случайно знакомится с местным режиссёром фильмов ужасов Дэвидом. Они быстро становятся друзьями, и Шарлотта претендует на главную роль в его новом проекте. Одержимый Шарлоттой Дэвид начинает создавать свой очередной шедевр ужаса, который выразит всю красоту его новой музы

  • Мировая премьера:6 июня 2014

    Качество: DVDRip
    Формат:AVI
    Видео кодек: XviD
    Аудио кодек:AC3
    Видео: XviD, 720x304 (2.35:1), 1993 kbps, 23,976 fps, 0,380 bpp
    Аудио: AC3 / 2.0 / 48 kHz / 192 kbps / 16 bit


    Код:

    General
    Complete name                            : D:\Торенты\Pieces.Of.Talent.2014.DVDRip.CINEMANIA.avi
    Format                                   : AVI
    Format/Info                              : Audio Video Interleave
    File size                                : 1.46 GiB
    Duration                                 : 1h 35mn
    Overall bit rate                         : 2 195 Kbps
    Writing application                      : VirtualDubMod 1.5.10.2 (build 2542/release)
    Writing library                          : VirtualDubMod build 2542/release

    Video
    ID                                       : 0
    Format                                   : MPEG-4 Visual
    Format profile                           : Advanced Simple@L5
    Format settings, BVOP                    : 2
    Format settings, QPel                    : No
    Format settings, GMC                     : No warppoints
    Format settings, Matrix                  : Default (MPEG)
    Codec ID                                 : XVID
    Codec ID/Hint                            : XviD
    Duration                                 : 1h 35mn
    Bit rate                                 : 1 994 Kbps
    Width                                    : 720 pixels
    Height                                   : 304 pixels
    Display aspect ratio                     : 2.35:1
    Frame rate                               : 23.976 fps
    Color space                              : YUV
    Chroma subsampling                       : 4:2:0
    Bit depth                                : 8 bits
    Scan type                                : Progressive
    Compression mode                         : Lossy
    Bits/(Pixel*Frame)                       : 0.380
    Stream size                              : 1.33 GiB (91%)
    Writing library                          : XviD 1.2.1 (UTC 2008-12-04)

    Audio
    ID                                       : 1
    Format                                   : AC-3
    Format/Info                              : Audio Coding 3
    Mode extension                           : CM (complete main)
    Codec ID                                 : 2000
    Duration                                 : 1h 35mn
    Bit rate mode                            : Constant
    Bit rate                                 : 192 Kbps
    Channel(s)                               : 2 channels
    Channel positions                        : Front: L R
    Sampling rate                            : 48.0 KHz
    Bit depth                                : 16 bits
    Compression mode                         : Lossy
    Stream size                              : 131 MiB (9%)
    Alignment                                : Split accross interleaves
    Interleave, duration                     : 42 ms (1.00 video frame)
    Interleave, preload duration             : 500 ms

    Скриншоты:

    Срочно! Нужна помощь! Жмите

    © Оформление by Ворон
    piratbit.pw



  • Скачать Шедевры ужаса через торрент https://pic1.kartinco.top/images/61/ordi9.jpg Скачать фильм Шедевры ужаса через торрент бесплантно в хорошем качестве Описание:Действие фильма разворачивается в маленьком городке в Северной Каролине. Шарлотта, начинающая актриса, работает в ночном клубе ... 9.1 10 18
    Торрент: Зарегистрирован [2014-12-06 17:15] · скачан: 309 раз
    Статус: T временная
    Размер: 1.46 GB
    Как cкачать? Как скачать Шедевры ужаса через торрент | UTorrent



    Последний раз редактировалось: Ворон (2014-12-07 10:47), всего редактировалось 1 раз

    28-11-2019 20:33  

    Отключить всю рекламу на сайте


    06-12-2014 19:06 Шедевры ужаса Скачать торрент  

    чо как? дрочно? на аймдиби вродь 8piratbit.pw



    07-12-2014 03:09 Шедевры ужаса Скачать торрент  

    Ворон piratbit.pw



      Дорогой пользователь! Огромная просьба, поблагодарите релизера, оцените раздачу и оставьте свои комментарий, если Вы скачали Шедевры ужаса через торрент бесплатно! Внесите свою лепту в развитие PiratBit!
      Комментировать посты могут только пользователи прошедшие не сложную регистрацию
      Показать сообщения:    

      Шедевры ужаса через торрент
      Скачать бесплатно Шедевры ужаса
      Шедевры ужаса скачать торрент
      Шедевры ужаса смотреть онлайн
      Cкачать фильм Шедевры ужаса бесплатно
      Шедевры ужаса скачать торрент в хорошем качестве
      Шедевры ужаса смотреть онлайн бесплатно в хорошем качестве


      Вы не можете начинать темы
      Вы не можете отвечать на сообщения
      Вы не можете редактировать свои сообщения
      Вы не можете удалять свои сообщения
      Вы не можете голосовать в опросах
      Вы не можете прикреплять файлы к сообщениям
      Вы можете скачивать файлы