Ссылка на приватное зеркало нашего сайта всего за 1$. Внимание количество ограничено!!!

2 сезон

iTunes

1 сезон

1

iTunes

iTunes

iTunes

1 сезон

RePack

30

ИГРА 18+

pack

ВАЖНО

!!Акция!!

Alien_RageХит недели

RePack

MK11
pack

Забери бонус

RePack

jed

!!Акция!!

Alien_Rage

RePack

fifa19

RePack

Assassins Creed: Odyssey

RePack

NEED FOR SPEED™ PAYBACK

4 сезон

9 сезон

Бесстыжие 9 сезон

Все сериалы

все сериалы на PB.wtf

RePack

FAR CRY 5
  

День дурака (Александр Баранов) [2014, Россия, комедия, приключения, WEB-DLRip) piratbit.pw

День дурака через торрент piratbit.pw

Размер: 1.37 GB | Добавлен: 5 лет 10 мес. назад | Торрент скачан:1665 раз
Скачать  

05-12-2014 02:14 День дурака Скачать торрент  

День дурака
«Мы отыграемся по полной»


  • Год выпуска: 2014
  • Страна: Россия
  • Жанр: комедия, приключения
  • Продолжительность: 01:30:15
  • Перевод: Не требуется

  • Режиссер: Александр Баранов
  • В ролях:

    Алексей Весёлкин (Ванька), Александр Лыков (Сергей Сергеевич), Антонина Дивина (Маша), Александр Воробьев (Махов), Светлана Чуйкина (Ольга), Сергей Удовик (Апарыш), Сергей Беляев (Кошкин), Игорь Кистол (Бабаев), Антон Васильев (Боровик), Дмитрий Белоцерковский (Козлов), Гуля Нижинская (Альбина), Евгения Шипова (Рябова)

  • Описание:
    Ванька работает швейцаром в гостинице. Он ненавидит ее обеспеченных постояльцев, но при этом мечтает пожить их роскошной жизнью. А пока вынужден жить в машине, купленной в кредит, так как из съемной квартиры его выгнали за неуплату. В этой и без того непростой ситуации на голову парня сваливается коллектор Сергей Сергеевич, который твердо решил выбить из Ваньки долг. Чтобы хоть как-то отсрочить расправу, Ванька выдает себя за сына богатого фермера, который с легкостью погасит кредит. Но по дороге на ферму попутчики поневоле попадают в аварию, которая оборачивается для Ваньки неожиданным спасением. Нечистый на руку мэр провинциального городка и вороватые сотрудники его администрации принимают московских гостей за представителей Следственного комитета. Вчерашнего швейцара ждет королевский прием и взятка в виде руки и сердца мэрской дочки... или скандальное разоблачение.
  • Рейтинг:



  • Качество: WEB-DLRip
  • Формат: :AVI
  • Видео кодек: XviD
  • Аудио кодек: AC3
  • Видео: 720x304 (2.35:1), 1966 kbps, 24 fps, 0,374 bpp
  • Аудио: 2.0 / 48 kHz / 192 kbps / 16 bit
  • Релиз от: GEKADOL

    Код:

    General
    Complete name                            : I:\Den.duraka.2014.O.WEB-DLRip.1400MB.avi
    Format                                   : AVI
    Format/Info                              : Audio Video Interleave
    File size                                : 1.37 GiB
    Duration                                 : 1h 30mn
    Overall bit rate                         : 2 168 Kbps
    Writing application                      : VirtualDubMod 1.5.10.3 | www.virtualdub-fr.org || (build 2550/release)
    Writing library                          : VirtualDubMod build 2550/release

    Video
    ID                                       : 0
    Format                                   : MPEG-4 Visual
    Format profile                           : Advanced Simple@L5
    Format settings, BVOP                    : 2
    Format settings, QPel                    : No
    Format settings, GMC                     : No warppoints
    Format settings, Matrix                  : Default (MPEG)
    Codec ID                                 : XVID
    Codec ID/Hint                            : XviD
    Duration                                 : 1h 30mn
    Bit rate                                 : 1 967 Kbps
    Width                                    : 720 pixels
    Height                                   : 304 pixels
    Display aspect ratio                     : 2.35:1
    Frame rate                               : 24.000 fps
    Color space                              : YUV
    Chroma subsampling                       : 4:2:0
    Bit depth                                : 8 bits
    Scan type                                : Progressive
    Compression mode                         : Lossy
    Bits/(Pixel*Frame)                       : 0.374
    Stream size                              : 1.24 GiB (91%)
    Writing library                          : XviD 1.2.1 (UTC 2008-12-04)

    Audio
    ID                                       : 1
    Format                                   : AC-3
    Format/Info                              : Audio Coding 3
    Mode extension                           : CM (complete main)
    Codec ID                                 : 2000
    Duration                                 : 1h 30mn
    Bit rate mode                            : Constant
    Bit rate                                 : 192 Kbps
    Channel(s)                               : 2 channels
    Channel positions                        : Front: L R
    Sampling rate                            : 48.0 KHz
    Bit depth                                : 16 bits
    Compression mode                         : Lossy
    Stream size                              : 124 MiB (9%)
    Alignment                                : Split accross interleaves
    Interleave, duration                     : 42 ms (1.00 video frame)
    Interleave, preload duration             : 500 ms


    Скриншоты:



    piratbit.pw



  • Скачать День дурака через торрент http://i68.fastpic.ru/big/2014/1205/4d/d87b9904471dfcc14d830ff29aad934d.jpg Скачать фильм День дурака через торрент бесплантно в хорошем качестве Описание: Ванька работает швейцаром в гостинице. Он ненавидит ее обеспеченных постояльцев, но при этом мечтает пожить их роскошной жизнью. ... 9.3 10 50
    Торрент: Зарегистрирован [2014-12-06 15:48] · скачан: 1 665 раз
    Статус: √ проверено
    Размер: 1.37 GB
    Как cкачать? Как скачать День дурака через торрент | qTorrent

    % Раздел Тема Автор DL S | L
    Фильмы (WEB-DL 720p, 1080p) [ 2.78 GB ] День дурака / April Fool's Day [1986 WEB-DLRip 720p] AVO MVO Леонид Ильич Скачать
    2 | 0
    Отечественная Поп музыка (сборники) (mp3) [ 355 MB ] VA-Зайцев нет. 1 апреля. День дурака 2016 / MP3 / VBR 192-320 kbps / Поп Танцевальный Рок Ретро bober100 Скачать
    1 | 0
    Наши новые фильмы 2014 [ 1.46 GB ] День дурака [2014 Россия DVDRip) / Ворон Скачать
    1 | 0
    Наши фильмы (DVD фильмы) [ 4.32 GB ] День дурака [2014 DVD5] R5 voovaz Скачать
    1 | 0

    28-11-2019 20:33  

    Отключить всю рекламу на сайте

    05-12-2014 02:52 День дурака Скачать торрент  

    Очередное фуфлоpiratbit.pw



    05-12-2014 05:54 День дурака Скачать торрент  

    oleg365 писал(а):

    Очередное фуфло

    Ну это уж как водится)))В этом жанре более-менее приемлемое снимают только "Квартет И".piratbit.pw



    06-12-2014 17:08 День дурака Скачать торрент  

    кино на дурака...piratbit.pw



    12-12-2014 20:06 День дурака Скачать торрент  

    Ребят не советуюpiratbit.pw



      Дорогой пользователь! Огромная просьба, поблагодарите релизера, оцените раздачу и оставьте свои комментарий, если Вы скачали День дурака через торрент бесплатно! Внесите свою лепту в развитие PiratBit!
      Комментировать посты могут только пользователи прошедшие не сложную регистрацию
      Показать сообщения:    

      День дурака через торрент
      Скачать бесплатно День дурака
      День дурака скачать торрент
      День дурака смотреть онлайн
      Cкачать фильм День дурака бесплатно
      День дурака скачать торрент в хорошем качестве
      День дурака смотреть онлайн бесплатно в хорошем качестве


      Вы не можете начинать темы
      Вы не можете отвечать на сообщения
      Вы не можете редактировать свои сообщения
      Вы не можете удалять свои сообщения
      Вы не можете голосовать в опросах
      Вы не можете прикреплять файлы к сообщениям
      Вы можете скачивать файлы