Ссылка на приватное зеркало всего за 1$. Внимание количество ограничено!!!

iTunes

iTunes

iTunes

1

iTunes

iTunes

iTunes

iTunes

iTunes

30
pack

$ от Little Big

ВАЖНО

!!Акция!!

Alien_RageХит недели

RePack

Resident Evil 21

ИГРА 18+

pack

RePack

jed

!!Акция!!

Alien_Rage

RePack

fifa19

RePack

Assassins Creed: Odyssey

RePack

NEED FOR SPEED™ PAYBACK

4 сезон

9 сезон

Бесстыжие 9 сезон

Все сериалы

все сериалы на PB.wtf

RePack

FAR CRY 5
  

Другой берег (Владимир Басов , Ольга Басова ) [2014, Драма, HDTVRip] piratbit.pw

Другой берег через торрент piratbit.pw

Размер: 1.37 GB | Добавлен: 5 лет 7 мес. назад | Торрент скачан:232 раза
Скачать  

06-12-2014 09:20 Другой берег Скачать торрент  


Другой берег


Год выпуска:2014
Страна: Россия
Жанр: Драма
Продолжительность:01:35:39
Перевод:Не требуется
Режиссер:Владимир Басов , Ольга Басова

  • В ролях:

    Леонид Архангельский (Михаил Крюков), Мария Аниканова (Ксения), Егор Баринов (Зиганшин), Андрей Казаков (Конюхов), Полина Филоненко (Лиля), Анна Скиданова (Катруся), Никита Пикалов (Семён)
  • Описание:
    Блистательная Ксения Конюхова, выпускница консерватории и МГИМО, отзывается от карьеры дипломата и возвращается в родной городок из-за болезни отца. Там ее жизнь круто изменяется: она начинает свой бизнес, выходит замуж и становится одной из самых преуспевающих женщин. У нее есть все: семья, верная подруга, большой дом, деньги. Ксении завидуют. Многим кажется, что она рождена для счастья, везения и радостей. Всё эти иллюзии разрушаются в самый неподходящий момент: на свадьбе ее дочери. Ксения исчезает...


    Качество: HDTVRip
    Формат:AVI
    Видео кодек: XviD
    Аудио кодек:AC3
    Видео: XviD, 720x400 (16:9), 1846 kbps, 25 fps, 0,257 bpp
    Аудио: AC3 / 2.0 / 48 kHz / 192 kbps / 16 bit


    Код:

    General
    Complete name                            : D:\Торенты\Другой.берег.2014.HDTVRip.Files-x.avi
    Format                                   : AVI
    Format/Info                              : Audio Video Interleave
    Format profile                           : OpenDML
    File size                                : 1.37 GiB
    Duration                                 : 1h 35mn
    Overall bit rate                         : 2 051 Kbps
    Writing application                      : Lavf53.19.0

    Video
    ID                                       : 0
    Format                                   : MPEG-4 Visual
    Format profile                           : Advanced Simple@L5
    Format settings, BVOP                    : 1
    Format settings, QPel                    : No
    Format settings, GMC                     : No warppoints
    Format settings, Matrix                  : Custom
    Codec ID                                 : XVID
    Codec ID/Hint                            : XviD
    Duration                                 : 1h 35mn
    Bit rate                                 : 1 847 Kbps
    Width                                    : 720 pixels
    Height                                   : 400 pixels
    Display aspect ratio                     : 16:9
    Frame rate                               : 25.000 fps
    Color space                              : YUV
    Chroma subsampling                       : 4:2:0
    Bit depth                                : 8 bits
    Scan type                                : Progressive
    Compression mode                         : Lossy
    Bits/(Pixel*Frame)                       : 0.257
    Stream size                              : 1.23 GiB (90%)
    Writing library                          : XviD 73

    Audio
    ID                                       : 1
    Format                                   : AC-3
    Format/Info                              : Audio Coding 3
    Mode extension                           : CM (complete main)
    Codec ID                                 : 2000
    Duration                                 : 1h 35mn
    Bit rate mode                            : Constant
    Bit rate                                 : 192 Kbps
    Channel(s)                               : 2 channels
    Channel positions                        : Front: L R
    Sampling rate                            : 48.0 KHz
    Bit depth                                : 16 bits
    Compression mode                         : Lossy
    Stream size                              : 131 MiB (9%)
    Alignment                                : Aligned on interleaves
    Interleave, duration                     : 32 ms (0.80 video frame)

    Скриншоты:

    Срочно! Нужна помощь! Жмите

    © Оформление by Ворон
    piratbit.pw



  • Скачать Другой берег через торрент http://pic.kartinco.top/images/6/ordi9.jpg Скачать фильм Другой берег через торрент бесплантно в хорошем качестве Описание:Блистательная Ксения Конюхова, выпускница консерватории и МГИМО, отзывается от карьеры дипломата и возвращается в родной городок ... 9.4 10 9
    Торрент: Зарегистрирован [2014-12-06 09:20] · скачан: 232 раз
    Статус: √ проверено
    Размер: 1.37 GB
    Как cкачать? Как скачать Другой берег через торрент | qTorrent

    % Раздел Тема Автор DL S | L
    Наши новые фильмы 2014 [ 1.46 GB ] Другой берег [2014 Россия HDTVRip-AVC] sokol_ok Скачать
    2 | 0

    28-11-2019 20:33  

    Отключить всю рекламу на сайте

      Дорогой пользователь! Огромная просьба, поблагодарите релизера, оцените раздачу и оставьте свои комментарий, если Вы скачали Другой берег через торрент бесплатно! Внесите свою лепту в развитие PiratBit!
      Комментировать посты могут только пользователи прошедшие не сложную регистрацию
      Показать сообщения:    

      Другой берег через торрент
      Скачать бесплатно Другой берег
      Другой берег скачать торрент
      Другой берег смотреть онлайн
      Cкачать фильм Другой берег бесплатно
      Другой берег скачать торрент в хорошем качестве
      Другой берег смотреть онлайн бесплатно в хорошем качестве


      Вы не можете начинать темы
      Вы не можете отвечать на сообщения
      Вы не можете редактировать свои сообщения
      Вы не можете удалять свои сообщения
      Вы не можете голосовать в опросах
      Вы не можете прикреплять файлы к сообщениям
      Вы можете скачивать файлы