1 сезон

3 сезон

iTunes

1

iTunes

DUB Netflix

iTunes

13

1 сезон

RePack

30

Deluxe

pack

Легкие деньги

ВАЖНО

ИГРА 18+

pack

RePack

MK11

RePack

jed

RePack

fifa19

RePack

RDR2

RePack

NEED FOR SPEED™ PAYBACK

4 сезон

9 сезон

Бесстыжие 9 сезон

Все сериалы

все сериалы на PB.wtf

RePack

FAR CRY 5

Anonymous, доброе утро, мы не успеваем до 1 числа собрать деньги на оплату серверов, помогите нам пожалуйста в это трудное время. В качестве благодарности мы отключим Вам всю рекламу на сайте (укажите свой ник в строку Ваше имя)!

×
  
Magnet ссылка

Джезабель / Jessabelle (Кевин Гротерт ) [2014, триллер, ужасы, WEB-DLRip, Любительский двухголосый [Студия "Paradox"] piratbit.pw

Джезабель через торрент piratbit.pw

Размер: 1.36 GB | Добавлен: 6 лет 6 мес. назад | Торрент скачан:1719 раз
Скачать  

04-12-2014 16:32 Джезабель Скачать торрент  


Джезабель / Jessabelle
«И мёртвые восстанут»

Год выпуска:2014
Страна: США
Жанр:триллер, ужасы
Продолжительность:01:30:08
Перевод:Любительский двухголосый [Студия "Paradox"]
Режиссер:Кевин Гротерт

  • В ролях:

    Сара Снук (Jessie), Джоэль Картер (Kate), Марк Веббер (Preston), Дэвид Эндрюс (Leon), Ана де ла Регера (Rosaura), Эмбер Стивенс (Dead Girl), Крис Эллис (Sheriff Pruitt), Брайан Хэллисей (Mark), Вон Уилсон (Moses), Лариса Олейник (Sam), Фран Беннетт (Mrs. Davis), Пол Гарретт (Christophe)
  • Описание:
    После трагической аварии, унесшей жизни мужа Джесси и их еще нерожденного ребенка, девушка оказывается прикована к инвалидному креслу и вынуждена переехать к своему отцу, проживающему в отдаленном особняке. Вскоре она обнаруживает загадочные видеозаписи, снятые ее давно умершей матерью. Джесси с ужасом понимает, что таинственные предсказания начинают сбываться...

  • Мировая премьера:6 ноября 2014

    Качество: WEB-DLRip
    Формат:AVI
    Видео кодек: XviD
    Аудио кодек:AC3
    Видео: XviD, 720x400 (16:9), 1770 kbps, 23,976 fps, 0,256 bpp
    Аудио: AC3 / 5.1 / 48 kHz / 384 kbps / 16 bit


    Код:

    General
    Complete name                            : D:\Торенты\Jessabelle.2014.L.WEB-DLRip.avi
    Format                                   : AVI
    Format/Info                              : Audio Video Interleave
    File size                                : 1.36 GiB
    Duration                                 : 1h 30mn
    Overall bit rate                         : 2 164 Kbps
    Writing application                      : VirtualDubMod 1.5.10.2 (build 2540/release)
    Writing library                          : VirtualDubMod build 2540/release

    Video
    ID                                       : 0
    Format                                   : MPEG-4 Visual
    Format profile                           : Advanced Simple@L5
    Format settings, BVOP                    : 1
    Format settings, QPel                    : No
    Format settings, GMC                     : No warppoints
    Format settings, Matrix                  : Default (H.263)
    Codec ID                                 : XVID
    Codec ID/Hint                            : XviD
    Duration                                 : 1h 30mn
    Bit rate                                 : 1 771 Kbps
    Width                                    : 720 pixels
    Height                                   : 400 pixels
    Display aspect ratio                     : 16:9
    Frame rate                               : 23.976 fps
    Color space                              : YUV
    Chroma subsampling                       : 4:2:0
    Bit depth                                : 8 bits
    Scan type                                : Progressive
    Compression mode                         : Lossy
    Bits/(Pixel*Frame)                       : 0.256
    Stream size                              : 1.12 GiB (82%)
    Writing library                          : XviD 1.2.1 (UTC 2008-12-04)

    Audio
    ID                                       : 1
    Format                                   : AC-3
    Format/Info                              : Audio Coding 3
    Mode extension                           : CM (complete main)
    Codec ID                                 : 2000
    Duration                                 : 1h 30mn
    Bit rate mode                            : Constant
    Bit rate                                 : 384 Kbps
    Channel(s)                               : 6 channels
    Channel positions                        : Front: L C R, Side: L R, LFE
    Sampling rate                            : 48.0 KHz
    Bit depth                                : 16 bits
    Compression mode                         : Lossy
    Stream size                              : 248 MiB (18%)
    Alignment                                : Split accross interleaves
    Interleave, duration                     : 42 ms (1.00 video frame)
    Interleave, preload duration             : 500 ms

    Скриншоты:

    Каталог Новинок (Фильмы-трейлеры, Игры, Сериалы, Мультфильмы)

    © Оформление by Ворон
    piratbit.pw



  • Скачать Джезабель через торрент https://pic1.kartinco.top/images/61/ordi9.jpg Скачать фильм Джезабель через торрент бесплантно в хорошем качестве Описание:После трагической аварии, унесшей жизни мужа Джесси и их еще нерожденного ребенка, девушка оказывается прикована к инвалидному ... 9.7 10 44
    Info! Золотая раздача, скачанное не засчитывается.
    Торрент: Зарегистрирован [2014-12-04 16:32] · скачан: 1 719 раз
    Статус: √ проверено
    Размер: 1.36 GB
    Как cкачать? Как скачать Джезабель через торрент | UTorrent

    % Раздел Тема Автор DL S | L
    Фильмы [HD 720p, 1080p] (Хороший звук DUB, MVO) [ 6.56 GB ] Джезабель / Jessabelle [2014 BDRip 720p / ] Ворон Скачать
    1 | 0
    Фильмы 2014 [DVDrip, WEB-DLRip, HDrip] [ 1.37 GB ] Джезабель / Jessabelle [2014 HDRip ] Ворон Скачать
    1 | 0
    Фильмы [HD 720p, 1080p] (Хороший звук DUB, MVO) [ 11.58 GB ] Джезабель / Jessabelle [2014 BDRip 1080p / ] Ворон Скачать
    1 | 0
    Фильмы [HD 720p, 1080p] (Хороший звук DUB, MVO) [ 12.59 GB ] Джезабель / Jessabelle [2014 BDRip 1080p] DVO+MVO+VO Strelok453 Скачать
    1 | 0
    Фильмы 2014 (Звук TS, Cam, VO, DVO) [ 1.13 GB ] Джезабель / Jessabelle [2014 WEB-DLRipЛюбительский [datynet] jump88 Скачать
    1 | 0


    Последний раз редактировалось: Ворон (2015-01-15 19:00), всего редактировалось 1 раз

    28-11-2019 20:33  

    Отключить всю рекламу на сайте


    09-01-2015 14:04 Джезабель Скачать торрент  

    ничего такой фильмец можно смотретьpiratbit.pw



    10-01-2015 12:44 Джезабель Скачать торрент  

    1 106 раз скачан и лишь один комент. дааааааааа!
    отпишитесь ребятушкиpiratbit.pw



      Дорогой пользователь! Огромная просьба, поблагодарите релизера, оцените раздачу и оставьте свои комментарий, если Вы скачали Джезабель через торрент бесплатно! Внесите свою лепту в развитие PiratBit!
      Комментировать посты могут только пользователи прошедшие не сложную регистрацию
      Показать сообщения:    

      Джезабель через торрент
      Скачать бесплатно Джезабель
      Джезабель скачать торрент
      Джезабель смотреть онлайн
      Cкачать фильм Джезабель бесплатно
      Джезабель скачать торрент в хорошем качестве
      Джезабель смотреть онлайн бесплатно в хорошем качестве


      Вы не можете начинать темы
      Вы не можете отвечать на сообщения
      Вы не можете редактировать свои сообщения
      Вы не можете удалять свои сообщения
      Вы не можете голосовать в опросах
      Вы не можете прикреплять файлы к сообщениям
      Вы можете скачивать файлы