Ссылка на приватное зеркало нашего сайта всего за 1$. Внимание количество ограничено!!!

2 сезон

iTunes

1 сезон

1

iTunes

iTunes

iTunes

1 сезон

RePack

30

ИГРА 18+

pack

ВАЖНО

!!Акция!!

Alien_RageХит недели

RePack

MK11
pack

Забери бонус

RePack

jed

!!Акция!!

Alien_Rage

RePack

fifa19

RePack

Assassins Creed: Odyssey

RePack

NEED FOR SPEED™ PAYBACK

4 сезон

9 сезон

Бесстыжие 9 сезон

Все сериалы

все сериалы на PB.wtf

RePack

FAR CRY 5
  

Тайна тёмной комнаты (Ольга Беляева ) [2014, приключения, детский, DVDRip] piratbit.pw

Тайна тёмной комнаты через торрент piratbit.pw

Размер: 1.37 GB | Добавлен: 5 лет 10 мес. назад | Торрент скачан:440 раз
Скачать  

04-12-2014 14:50 Тайна тёмной комнаты Скачать торрент  


Тайна тёмной комнаты

«Думаешь, ничего неизведанного больше нет? Как бы не так!…»

Год выпуска: 2014
Страна:Россия
Жанр:приключения, детский
Продолжительность: 01:16:27
Перевод:Не требуется
Режиссер:Ольга Беляева
В ролях:

Сергей Никоненко, Виктор Сухоруков, Галина Польских, Ирина Скобцева, Константин Крюков, Иван Агапов, Екатерина Воронина, Нина Маслова, Егор Губарев, Андрей Попович, Евгения Каверау, Даниил Меркулов
  • Описание:
    Два школьника решают исследовать таинственное окно, появляющееся на стене их дома в полночь во время полнолуния. Проникнув туда и оказавшись в тёмной комнате, они и не подозревают, какие приключения ждут их впереди...


    Качество:DVDRip
    Формат:AVI
    Видео кодек: XviD
    Аудио кодек:AC3
    Видео: XviD, 720x384 (1.875), 2101 kbps, 25 fps, 0,304 bpp
    Аудио: AC3 / 5.1 / 48 kHz / 448 kbps / 16 bit

    Код:

    General
    Complete name                            : D:\Торенты\Tajna.tjomnoj.komnaty.2014.O.DVDRip.1400Mb.avi
    Format                                   : AVI
    Format/Info                              : Audio Video Interleave
    File size                                : 1.37 GiB
    Duration                                 : 1h 16mn
    Overall bit rate                         : 2 560 Kbps
    Writing application                      : VirtualDubMod 1.5.10.3 | www.virtualdub-fr.org || (build 2550/release)
    Writing library                          : VirtualDubMod build 2550/release

    Video
    ID                                       : 0
    Format                                   : MPEG-4 Visual
    Format profile                           : Advanced Simple@L5
    Format settings, BVOP                    : 2
    Format settings, QPel                    : No
    Format settings, GMC                     : No warppoints
    Format settings, Matrix                  : Default (MPEG)
    Codec ID                                 : XVID
    Codec ID/Hint                            : XviD
    Duration                                 : 1h 16mn
    Bit rate                                 : 2 102 Kbps
    Width                                    : 720 pixels
    Height                                   : 384 pixels
    Display aspect ratio                     : 1.875
    Frame rate                               : 25.000 fps
    Color space                              : YUV
    Chroma subsampling                       : 4:2:0
    Bit depth                                : 8 bits
    Scan type                                : Progressive
    Compression mode                         : Lossy
    Bits/(Pixel*Frame)                       : 0.304
    Stream size                              : 1.12 GiB (82%)
    Writing library                          : XviD 1.2.1 (UTC 2008-12-04)

    Audio
    ID                                       : 1
    Format                                   : AC-3
    Format/Info                              : Audio Coding 3
    Mode extension                           : CM (complete main)
    Codec ID                                 : 2000
    Duration                                 : 1h 16mn
    Bit rate mode                            : Constant
    Bit rate                                 : 448 Kbps
    Channel(s)                               : 6 channels
    Channel positions                        : Front: L C R, Side: L R, LFE
    Sampling rate                            : 48.0 KHz
    Bit depth                                : 16 bits
    Compression mode                         : Lossy
    Stream size                              : 245 MiB (18%)
    Alignment                                : Split accross interleaves
    Interleave, duration                     : 40 ms (1.00 video frame)
    Interleave, preload duration             : 500 ms


    Скриншоты:

    Каталог Новинок (Фильмы-трейлеры, Игры, Сериалы, Мультфильмы)

    © Оформление by Ворон
    piratbit.pw



  • Скачать Тайна тёмной комнаты через торрент http://pic.kartinco.top/images/6/ordi9.jpg Скачать фильм Тайна тёмной комнаты через торрент бесплантно в хорошем качестве Описание:Два школьника решают исследовать таинственное окно, появляющееся на стене их дома в полночь во время полнолуния. Проникнув туда и ... 8 10 18
    Торрент: Зарегистрирован [2014-12-04 14:50] · скачан: 440 раз
    Статус: √ проверено
    Размер: 1.37 GB
    Как cкачать? Как скачать Тайна тёмной комнаты через торрент | qTorrent

    % Раздел Тема Автор DL S | L
    Наши фильмы (DVD фильмы) [ 4 GB ] Тайна тёмной комнаты [2014 детский DVD5] R5 voovaz Скачать
    1 | 0

    28-11-2019 20:33  

    Отключить всю рекламу на сайте

    05-12-2014 10:37 Тайна тёмной комнаты Скачать торрент  

    Спасибо.Неужели попытка возродить детское кино в нашем"синематографе"?Интересно глянуть....piratbit.pw



      Дорогой пользователь! Огромная просьба, поблагодарите релизера, оцените раздачу и оставьте свои комментарий, если Вы скачали Тайна тёмной комнаты через торрент бесплатно! Внесите свою лепту в развитие PiratBit!
      Комментировать посты могут только пользователи прошедшие не сложную регистрацию
      Показать сообщения:    

      Тайна тёмной комнаты через торрент
      Скачать бесплатно Тайна тёмной комнаты
      Тайна тёмной комнаты скачать торрент
      Тайна тёмной комнаты смотреть онлайн
      Cкачать фильм Тайна тёмной комнаты бесплатно
      Тайна тёмной комнаты скачать торрент в хорошем качестве
      Тайна тёмной комнаты смотреть онлайн бесплатно в хорошем качестве


      Вы не можете начинать темы
      Вы не можете отвечать на сообщения
      Вы не можете редактировать свои сообщения
      Вы не можете удалять свои сообщения
      Вы не можете голосовать в опросах
      Вы не можете прикреплять файлы к сообщениям
      Вы можете скачивать файлы