1 сезон

3 сезон

iTunes

1

iTunes

DUB Netflix

iTunes

13

1 сезон

RePack

30

Deluxe

pack

Легкие деньги

ВАЖНО

ИГРА 18+

pack

RePack

MK11

RePack

jed

RePack

fifa19

RePack

RDR2

RePack

NEED FOR SPEED™ PAYBACK

4 сезон

9 сезон

Бесстыжие 9 сезон

Все сериалы

все сериалы на PB.wtf

RePack

FAR CRY 5

Anonymous, добрый вечер, мы не успеваем до 1 числа собрать деньги на оплату серверов, помогите нам пожалуйста в это трудное время. В качестве благодарности мы отключим Вам всю рекламу на сайте (укажите свой ник в строку Ваше имя)!

×
  
Magnet ссылка

Чудо / Miraculum (Дэниэл Гру / Daniel Grou) [2014, Канада, драма, HDRip, Любительский (одноголосый)[datynet] piratbit.pw

Чудо через торрент piratbit.pw

Размер: 1.46 GB | Добавлен: 6 лет 6 мес. назад | Торрент скачан:115 раз
Скачать  

04-12-2014 02:08 Чудо Скачать торрент  

Чудо / Miraculum


  • Год выпуска: 2014
  • Страна: Канада
  • Жанр: драма

  • Продолжительность: 01:49:33
  • Перевод: Любительский (одноголосый)[Антон Агапов aka datynet] - перевод на русский язык [creo140]

  • Режиссер: Дэниэл Гру / Daniel Grou
  • В ролях:

    Робин Обер (Martin), Marilyn Castonguay (Julie), Вайолетт Шаво (Madeleine Simard), Sarianne Cormier (Kim), Ксавье Долан (Étienne), Энни Дорвал (Evelyne), Сильвен Марсель (Michel Beaudry), Жюльен Пулен (Raymond), Жильбер Сикотт (Mari de Louise), Синтия Трудел (Mary), Луиз Туркот (Louise), Жан-Николя Верро (Maxime)

  • Описание:
    Главные герои фильма связаны друг с другом невидимыми нитями судьбы. У каждого из них свои проблемы, которые они изо всех стараются решить, но это, увы, не всегда удаётся. Однако, если постараться искренне постараться помочь ближнему, отданное добро обязательно вернётся.
  • Рейтинг:



  • Качество: HDRip
  • Формат: :AVI
  • Видео кодек: XviD
  • Аудио кодек: AC3
  • Видео: 720x304 (2.35:1), 1514 kbps, 23,976 fps, 0,289 bpp
  • Аудио: 5.1 / 48 kHz / 384 kbps / 16 bit
  • Релиз от: GEKADOL

    Код:

    General
    Complete name                            : I:\Miraculum.2014.HDRip.CINEMANIA.avi
    Format                                   : AVI
    Format/Info                              : Audio Video Interleave
    File size                                : 1.46 GiB
    Duration                                 : 1h 49mn
    Overall bit rate                         : 1 908 Kbps
    Writing application                      : VirtualDubMod 1.5.10.2 (build 2542/release)
    Writing library                          : VirtualDubMod build 2542/release

    Video
    ID                                       : 0
    Format                                   : MPEG-4 Visual
    Format profile                           : Advanced Simple@L5
    Format settings, BVOP                    : 2
    Format settings, QPel                    : No
    Format settings, GMC                     : No warppoints
    Format settings, Matrix                  : Default (MPEG)
    Codec ID                                 : XVID
    Codec ID/Hint                            : XviD
    Duration                                 : 1h 49mn
    Bit rate                                 : 1 515 Kbps
    Width                                    : 720 pixels
    Height                                   : 304 pixels
    Display aspect ratio                     : 2.35:1
    Frame rate                               : 23.976 fps
    Color space                              : YUV
    Chroma subsampling                       : 4:2:0
    Bit depth                                : 8 bits
    Scan type                                : Progressive
    Compression mode                         : Lossy
    Bits/(Pixel*Frame)                       : 0.289
    Stream size                              : 1.16 GiB (79%)
    Writing library                          : XviD 1.2.1 (UTC 2008-12-04)

    Audio
    ID                                       : 1
    Format                                   : AC-3
    Format/Info                              : Audio Coding 3
    Mode extension                           : CM (complete main)
    Codec ID                                 : 2000
    Duration                                 : 1h 49mn
    Bit rate mode                            : Constant
    Bit rate                                 : 384 Kbps
    Channel(s)                               : 6 channels
    Channel positions                        : Front: L C R, Side: L R, LFE
    Sampling rate                            : 48.0 KHz
    Bit depth                                : 16 bits
    Compression mode                         : Lossy
    Stream size                              : 301 MiB (20%)
    Alignment                                : Split accross interleaves
    Interleave, duration                     : 42 ms (1.00 video frame)
    Interleave, preload duration             : 500 ms




    Скриншоты:



    piratbit.pw



  • Скачать Чудо через торрент http://i64.fastpic.ru/big/2014/1204/41/bf5179fc98b6af2d3ecb83126addc941.jpg Скачать фильм Чудо через торрент бесплантно в хорошем качестве Описание: Главные герои фильма связаны друг с другом невидимыми нитями судьбы. У каждого из них свои проблемы, которые они изо всех ... 10 10 6
    Торрент: Зарегистрирован [2014-12-04 02:08] · скачан: 115 раз
    Статус: √ проверено
    Размер: 1.46 GB
    Как cкачать? Как скачать Чудо через торрент | UTorrent

    28-11-2019 20:33  

    Отключить всю рекламу на сайте


      Дорогой пользователь! Огромная просьба, поблагодарите релизера, оцените раздачу и оставьте свои комментарий, если Вы скачали Чудо через торрент бесплатно! Внесите свою лепту в развитие PiratBit!
      Комментировать посты могут только пользователи прошедшие не сложную регистрацию
      Показать сообщения:    

      Чудо через торрент
      Скачать бесплатно Чудо
      Чудо скачать торрент
      Чудо смотреть онлайн
      Cкачать фильм Чудо бесплатно
      Чудо скачать торрент в хорошем качестве
      Чудо смотреть онлайн бесплатно в хорошем качестве


      Вы не можете начинать темы
      Вы не можете отвечать на сообщения
      Вы не можете редактировать свои сообщения
      Вы не можете удалять свои сообщения
      Вы не можете голосовать в опросах
      Вы не можете прикреплять файлы к сообщениям
      Вы можете скачивать файлы