Ссылка на приватное зеркало нашего сайта всего за 1$. Внимание количество ограничено!!!

2 сезон

iTunes

1 сезон

1

iTunes

iTunes

iTunes

1 сезон

RePack

30

ИГРА 18+

pack

ВАЖНО

!!Акция!!

Alien_RageХит недели

RePack

MK11
pack

Забери бонус

RePack

jed

!!Акция!!

Alien_Rage

RePack

fifa19

RePack

Assassins Creed: Odyssey

RePack

NEED FOR SPEED™ PAYBACK

4 сезон

9 сезон

Бесстыжие 9 сезон

Все сериалы

все сериалы на PB.wtf

RePack

FAR CRY 5
  

Сын (Арсений Гончуков ) [2014, драма, HDTVRip] piratbit.pw

Сын через торрент piratbit.pw

Размер: 1.37 GB | Добавлен: 5 лет 10 мес. назад | Торрент скачан:231 раз
Скачать  

03-12-2014 13:10 Сын Скачать торрент  


Сын

«Любовь без способности прощать становится проклятьем»

Год выпуска: 2014
Страна:Россия
Жанр:драма
Продолжительность: 01:32:58
Перевод:Не требуется
Режиссер:Арсений Гончуков
В ролях:

Алексей Черных (сын), Вадим Андреев (отец), Ольга Малахова (мать), Лидия Омутных (Лена, сестра), Елена Тонунц (Альбина, врач), Оксана Эрдлей (Оксана, невеста), Янина Когут (тетя Валя, библиотекарша), Валерий Карибьян (Сергей, друг), Дмитрий Курьянов (таксист), Дмитрий Файнштейн (любовник), Надежда Исаева, Сергей Зябко
  • Описание:
    Глубоко переживая потерю матери, сын отправляется в путь, чтобы разобраться в себе, встретиться с сестрой, давно уехавшей из дома, взглянуть в глаза отцу, бросившему семью...


    Качество:HDTVRip
    Формат:AVI
    Видео кодек: XviD
    Аудио кодек:AC3
    Видео: XviD, 720x400 (16:9), 1900 kbps, 25 fps, 0,253 bpp
    Аудио: AC3 / 2.0 / 48 kHz / 192 kbps / 16 bit

    Код:

    General
    Complete name                            : D:\Торенты\Syn..2014.HDTVRip.Files-x.avi
    Format                                   : AVI
    Format/Info                              : Audio Video Interleave
    File size                                : 1.37 GiB
    Duration                                 : 1h 32mn
    Overall bit rate                         : 2 108 Kbps
    Writing application                      : VirtualDubMod 1.5.10.3 | www.virtualdub-fr.org || (build 2550/release)
    Writing library                          : VirtualDubMod build 2550/release

    Video
    ID                                       : 0
    Format                                   : MPEG-4 Visual
    Format profile                           : Advanced Simple@L5
    Format settings, BVOP                    : 2
    Format settings, QPel                    : No
    Format settings, GMC                     : No warppoints
    Format settings, Matrix                  : Custom
    Codec ID                                 : XVID
    Codec ID/Hint                            : XviD
    Duration                                 : 1h 32mn
    Bit rate                                 :  1900 Kbps
    Width                                    : 720 pixels
    Height                                   : 400 pixels
    Display aspect ratio                     : 16:9
    Frame rate                               : 25.000 fps
    Color space                              : YUV
    Chroma subsampling                       : 4:2:0
    Bit depth                                : 8 bits
    Scan type                                : Progressive
    Compression mode                         : Lossy
    Bits/(Pixel*Frame)                       : 0.253
    Stream size                              : 1.18 GiB (87%)
    Writing library                          : XviD 73

    Audio
    ID                                       : 1
    Format                                   : AC-3
    Format/Info                              : Audio Coding 3
    Mode extension                           : CM (complete main)
    Codec ID                                 : 2000
    Duration                                 : 1h 32mn
    Bit rate mode                            : Constant
    Bit rate                                 : 192 Kbps
    Channel(s)                               : 2 channels
    Channel positions                        : Front: L R
    Sampling rate                            : 48.0 KHz
    Bit depth                                : 16 bits
    Compression mode                         : Lossy
    Stream size                              : 128 MiB (9%)
    Alignment                                : Split accross interleaves


    Скриншоты:

    Каталог Новинок (Фильмы-трейлеры, Игры, Сериалы, Мультфильмы)

    © Оформление by Ворон
    piratbit.pw



  • Скачать Сын через торрент http://pic.kartinco.top/images/6/ordi9.jpg Скачать фильм Сын через торрент бесплантно в хорошем качестве Описание:Глубоко переживая потерю матери, сын отправляется в путь, чтобы разобраться в себе, встретиться с сестрой, давно уехавшей из дома, ... 9.4 10 7
    Торрент: Зарегистрирован [2014-12-03 13:10] · скачан: 231 раз
    Статус: √ проверено
    Размер: 1.37 GB
    Как cкачать? Как скачать Сын через торрент | qTorrent

    % Раздел Тема Автор DL S | L
    Фильмы 2001-2005 [ 1.46 GB ] Сын маски / Son of the Mask [2005 семья фэнтази DVDRip Пиратка] DragonHard Скачать
    1 | 0
    Наши сериалы [ 7.8 GB ] Два отца и два сына / 1 сезон / 01-20 из 20 [2013 Россия WEBRip-AVC] лисяра Скачать
    1 | 0
    Наши сериалы [ 6.85 GB ] Два отца и два сына / Сезон: 2 / серии 1-20 из 20 [ 2014 Россия WEB-DLRip] GEKADOL Скачать
    1 | 0
    Зарубежные сериалы [ 44.3 GB ] Сыны Анархии / Sons of Anarchy [S01-06] HDTVRip WEB-DLRip / LostFilm DEVI Скачать
    1 | 0
    Фильмы 2014 [DVDrip, WEB-DLRip, HDrip] [ 1.37 GB ] Седьмой сын / Seventh Son [2014 Китай WEB-DLRip] ] White Smoke Скачать
    1 | 0
    Зарубежные сериалы [ 9.96 GB ] Сыны Анархии / Sons of Anarchy / Сезон: 7 / Серия 01-13 [2014 WEB-DLRip] [MVO] killermax2013 Скачать
    1 | 0
    Наши новые фильмы 2014 [ 1.46 GB ] Сын [2014 Россия HDTVRip-AVC] sokol_ok Скачать
    2 | 0

    28-11-2019 20:33  

    Отключить всю рекламу на сайте

    03-12-2014 19:49 Сын Скачать торрент  

    хм...скачали аж 52 раза................а в ответ тишина.....
    ну что ж за дела? ;)piratbit.pw



      Дорогой пользователь! Огромная просьба, поблагодарите релизера, оцените раздачу и оставьте свои комментарий, если Вы скачали Сын через торрент бесплатно! Внесите свою лепту в развитие PiratBit!
      Комментировать посты могут только пользователи прошедшие не сложную регистрацию
      Показать сообщения:    

      Сын через торрент
      Скачать бесплатно Сын
      Сын скачать торрент
      Сын смотреть онлайн
      Cкачать фильм Сын бесплатно
      Сын скачать торрент в хорошем качестве
      Сын смотреть онлайн бесплатно в хорошем качестве


      Вы не можете начинать темы
      Вы не можете отвечать на сообщения
      Вы не можете редактировать свои сообщения
      Вы не можете удалять свои сообщения
      Вы не можете голосовать в опросах
      Вы не можете прикреплять файлы к сообщениям
      Вы можете скачивать файлы