1 сезон

3 сезон

iTunes

1

iTunes

DUB Netflix

iTunes

13

1 сезон

RePack

30

Deluxe

pack

Легкие деньги

ВАЖНО

ИГРА 18+

pack

RePack

MK11

RePack

jed

RePack

fifa19

RePack

RDR2

RePack

NEED FOR SPEED™ PAYBACK

4 сезон

9 сезон

Бесстыжие 9 сезон

Все сериалы

все сериалы на PB.wtf

RePack

FAR CRY 5

Anonymous, доброй ночи, мы не успеваем до 1 числа собрать деньги на оплату серверов, помогите нам пожалуйста в это трудное время. В качестве благодарности мы отключим Вам всю рекламу на сайте (укажите свой ник в строку Ваше имя)!

×
  
Magnet ссылка

Супергеройское кино / Superhero Movie (Крэйг Мазин) [2008 г., фантастика, фэнтези, боевик, триллер, комедия, HDRip-AVC, DUB лицензия] piratbit.pw

Супергеройское кино через торрент piratbit.pw

Размер: 1.45 GB | Добавлен: 6 лет 6 мес. назад | Торрент скачан:228 раз
Скачать  

03-12-2014 12:59 Супергеройское кино Скачать торрент  

Супергеройское кино / Superhero Movie (2008) HDRip-AVC
Информация о фильме

Название: Супергеройское кино

Оригинальное название: Superhero Movie

Год выхода: 2008

Страна: США

Продолжительность: 01:22:29

Перевод: Дублированный, Оригинал (Английский)

Субтитры: русские, украинские

Жанр: фантастика, боевик, триллер, комедия

Режиссер: Крэйг Мазин

В ролях: Дрэйк Белл, Сара Пэкстон, Кристофер МакДональд, Лесли Нильсен, Кевин Харт, Мэрион Росс, Райан Хансен, Кит Дэвид, Брент Спайнер, Роберт Джой, Джеффри Тэмбор, Роберт Хэйс, Николь Салливан, Сэм Коэн, Трэйси Морган...

Описание: Сколько супергероев уже пытались спасти мир? Знакомьтесь с новым: его зовут Рик Райкер! Обычный школьник вдруг, неожиданным способом, обретает суперспособности (кроме умения летать!) Вот если бы еще он знал, как их использовать. Так что берегитесь: Стрекозец спешит на помощь!

Файл
Качество: HDRip-AVC
Формат видео: MKV
Видео кодек: AVC
Аудио кодек: AC3
Видео: 960x544 (16:9), 25 fps, 1941 kbps, 0.149 bit/pixel
Аудио #1: 48 kHz, AC3 Dolby Digital, 6 ch, ~384.00 kbps | Русский
Аудио #2: 48 kHz, AC3 Dolby Digital, 2 ch, ~192.00 kbps | Английский

Общее

Уникальный идентификатор : 184266539291225798955033055417213639736 (0x8AA071CFCBA6B2C9BAA268E672B7DC38)

Полное имя : D:Superhero Movie.2008.HDRip-AVC.mkv

Формат : Matroska

Версия формата : Version 4 / Version 2

Размер файла : 1,45 Гбайт

Продолжительность : 1 ч. 22 м.

Общий поток : 2517 Кбит/сек

Название фильма : Супергеройское кино / Superhero Movie (2008) HDRip-AVC rip by Rulya74

Дата кодирования : UTC 2014-11-29 06:20:12

Программа кодирования : mkvmerge v7.3.0 ('Nouages') 64bit built on Oct 22 2014 18:53:34

Библиотека кодирования : libebml v1.3.0 + libmatroska v1.4.1

DURATION : 01:16:56.829000000

NUMBER_OF_FRAMES : 1062

NUMBER_OF_BYTES : 50171

_STATISTICS_WRITING_APP : mkvmerge v7.3.0 ('Nouages') 64bit built on Oct 22 2014 18:53:34

_STATISTICS_WRITING_DATE_UTC : 2014-11-29 06:20:12

_STATISTICS_TAGS : BPS DURATION NUMBER_OF_FRAMES NUMBER_OF_BYTES

Видео

Идентификатор : 1

Формат : AVC

Формат/Информация : Advanced Video Codec

Профиль формата : High@L4.1

Параметр CABAC формата : Да

Параметр ReFrames формата : 11 кадров

Идентификатор кодека : V_MPEG4/ISO/AVC

Продолжительность : 1 ч. 22 м.

Битрейт : 1941 Кбит/сек

Ширина : 960 пикселей

Высота : 544 пикселя

Соотношение сторон : 16:9

Режим частоты кадров : Постоянный

Частота кадров : 25,000 кадров/сек

Цветовое пространство : YUV

Субдискретизация насыщенности : 4:2:0

Битовая глубина : 8 бит

Тип развёртки : Прогрессивная

Бит/(Пиксели*Кадры) : 0.149

Размер потока : 1,09 Гбайт (75%)

Библиотека кодирования : x264 core 142 r2431 ac76440

Настройки программы : cabac=1 / ref=11 / deblock=1:-1:-1 / analyse=0x3:0x113 / me=umh / subme=11 / psy=1 / psy_rd=1.04:0.08 / mixed_ref=1 / me_range=48 / chroma_me=1 / trellis=2 / 8x8dct=1 / cqm=0 / deadzone=21,11 / fast_pskip=0 / chroma_qp_offset=-3 / threads=10 / lookahead_threads=1 / sliced_threads=0 / nr=0 / decimate=1 / interlaced=0 / bluray_compat=0 / constrained_intra=0 / bframes=6 / b_pyramid=2 / b_adapt=1 / b_bias=0 / direct=3 / weightb=1 / open_gop=0 / weightp=2 / keyint=250 / keyint_min=25 / scenecut=40 / intra_refresh=0 / rc_lookahead=40 / rc=2pass / mbtree=1 / bitrate=1941 / ratetol=1.0 / qcomp=0.60 / qpmin=0 / qpmax=69 / qpstep=4 / cplxblur=20.0 / qblur=0.5 / vbv_maxrate=62500 / vbv_bufsize=78125 / nal_hrd=none / filler=0 / ip_ratio=1.40 / aq=1:1.00

Default : Да

Forced : Нет

Аудио #1

Идентификатор : 2

Формат : AC-3

Формат/Информация : Audio Coding 3

Расширение режима : CM (complete main)

Параметр Endianness формата : Big

Идентификатор кодека : A_AC3

Продолжительность : 1 ч. 22 м.

Вид битрейта : Постоянный

Битрейт : 384 Кбит/сек

Каналы : 6 каналов

Расположение каналов : Front: L C R, Side: L R, LFE

Частота : 48,0 КГц

Битовая глубина : 16 бит

Метод сжатия : С потерями

Размер потока : 227 Мбайт (15%)

Заголовок : Дублированный

Язык : Russian

Default : Да

Forced : Нет

Аудио #2

Идентификатор : 3

Формат : AC-3

Формат/Информация : Audio Coding 3

Расширение режима : CM (complete main)

Параметр Endianness формата : Big

Идентификатор кодека : A_AC3

Продолжительность : 1 ч. 22 м.

Вид битрейта : Постоянный

Битрейт : 192 Кбит/сек

Каналы : 2 канала

Расположение каналов : Front: L R

Частота : 48,0 КГц

Битовая глубина : 16 бит

Метод сжатия : С потерями

Размер потока : 113 Мбайт (8%)

Заголовок : Оригинал

Язык : English

Default : Нет

Forced : Нет

Текст #1

Идентификатор : 4

Формат : UTF-8

Идентификатор кодека : S_TEXT/UTF8

Идентификатор кодека/Информация : UTF-8 Plain Text

Язык : Russian

Default : Да

Forced : Нет

Текст #2

Идентификатор : 5

Формат : UTF-8

Идентификатор кодека : S_TEXT/UTF8

Идентификатор кодека/Информация : UTF-8 Plain Text

Язык : Ukrainian

Default : Нет

Forced : Нет
piratbit.pw



Скачать Супергеройское кино через торрент http://6.firepic.org/6/images/2014-11/29/pw6343o3pjir.png Скачать фильм Супергеройское кино через торрент бесплантно в хорошем качестве Описание: Сколько супергероев уже пытались спасти мир? Знакомьтесь с новым: его зовут Рик Райкер! Обычный школьник вдруг, неожиданным ... 10 10 10
Торрент: Зарегистрирован [2014-12-03 12:59] · скачан: 228 раз
Статус: √ проверено
Размер: 1.45 GB
Как cкачать? Как скачать Супергеройское кино через торрент | UTorrent

% Раздел Тема Автор DL S | L
Фильмы 2006-2008 [ 1.46 GB ] Супергеройское кино / Superhero Movie [2008 HDRip лицензия] ACFIORENTINA Скачать
1 | 0
Фильмы [HD 720p, 1080p] (Хороший звук DUB, MVO) [ 5.03 GB ] Супергеройское кино / Superhero Movie [2008 BDRip] SD Скачать
1 | 0

28-11-2019 20:33  

Отключить всю рекламу на сайте


    Дорогой пользователь! Огромная просьба, поблагодарите релизера, оцените раздачу и оставьте свои комментарий, если Вы скачали Супергеройское кино через торрент бесплатно! Внесите свою лепту в развитие PiratBit!
    Комментировать посты могут только пользователи прошедшие не сложную регистрацию
    Показать сообщения:    

    Супергеройское кино через торрент
    Скачать бесплатно Супергеройское кино
    Супергеройское кино скачать торрент
    Супергеройское кино смотреть онлайн
    Cкачать фильм Супергеройское кино бесплатно
    Супергеройское кино скачать торрент в хорошем качестве
    Супергеройское кино смотреть онлайн бесплатно в хорошем качестве


    Вы не можете начинать темы
    Вы не можете отвечать на сообщения
    Вы не можете редактировать свои сообщения
    Вы не можете удалять свои сообщения
    Вы не можете голосовать в опросах
    Вы не можете прикреплять файлы к сообщениям
    Вы можете скачивать файлы