1 сезон

3 сезон

iTunes

1

iTunes

DUB Netflix

iTunes

13

1 сезон

RePack

30

Deluxe

pack

Легкие деньги

ВАЖНО

ИГРА 18+

pack

RePack

MK11

RePack

jed

RePack

fifa19

RePack

RDR2

RePack

NEED FOR SPEED™ PAYBACK

4 сезон

9 сезон

Бесстыжие 9 сезон

Все сериалы

все сериалы на PB.wtf

RePack

FAR CRY 5

Anonymous, доброе утро, мы не успеваем до 1 числа собрать деньги на оплату серверов, помогите нам пожалуйста в это трудное время. В качестве благодарности мы отключим Вам всю рекламу на сайте (укажите свой ник в строку Ваше имя)!

×
  
Magnet ссылка

Зал Джимми / Jimmy's Hall (Кен Лоуч / Ken Loach) [2014, Великобритания, Ирландия, Франция, драма, история, HDRip, Любительский (одноголосый) [Pashaup] piratbit.pw

Зал Джимми через торрент piratbit.pw

Размер: 1.57 GB | Добавлен: 6 лет 6 мес. назад | Торрент скачан:23 раза
Скачать  

02-12-2014 01:54 Зал Джимми Скачать торрент  

Зал Джимми / Jimmy's Hall
«Where Anything Goes and Everyone Belongs»


  • Год выпуска: 2014
  • Страна: Великобритания, Ирландия, Франция
  • Жанр: драма, история
  • Продолжительность: 01:49:00
  • Перевод: Любительский (одноголосый) [Pashaup]- перевод на русский язык [дед_сто_лет]

  • Режиссер: Кен Лоуч / Ken Loach
  • В ролях:

    Бэрри Уорд (James Gralton), Симона Кирби (Oonagh), Эндрю Скотт (Father Seamus), Джим Нортон (Father Sheridan), Брайан Ф. О’Бирн (O'Keefe), Shane Cullen (Guard), Paul Fox, Сорча Фокс (Molly), Эйслинг Франсиози (Marie), Карл Джиари (Seán), Денис Гоф (Tess), Эйлин Генри (Alice)

  • Описание:
    В 1921-м году Джимми Гральтон решает построить танцевальный зал, куда молодые люди могли бы приходить общаться, спорить, учиться, но, в первую очередь, танцевать и веселиться. Долгие годы зал Джимми был отличным местом для отдыха, где царил дух свободомыслия. Однако в 1932-году Джимми, ставший к тому времени видным политиком, вступает в конфронтацию с властями Ирландии, и вскоре оказывается депортирован из страны.
  • Рейтинг:



  • Качество: HDRip
  • Формат: :AVI
  • Видео кодек: XviD
  • Аудио кодек: AC3
  • Видео: 720x384 (1.875), 1598 kbps, 23,976 fps, 0,241 bpp
  • Аудио: 5.1 / 48 kHz / 448 kbps / 16 bit
  • Релиз от: GEKADOL

    Код:

    General
    Complete name                            : I:\Jimmys.Hall.2014.HDRip.CINEMANIA.avi
    Format                                   : AVI
    Format/Info                              : Audio Video Interleave
    File size                                : 1.57 GiB
    Duration                                 : 1h 49mn
    Overall bit rate                         : 2 056 Kbps
    Writing application                      : VirtualDubMod 1.5.10.2 (build 2540/release)
    Writing library                          : VirtualDubMod build 2540/release

    Video
    ID                                       : 0
    Format                                   : MPEG-4 Visual
    Format profile                           : Advanced Simple@L5
    Format settings, BVOP                    : 2
    Format settings, QPel                    : No
    Format settings, GMC                     : No warppoints
    Format settings, Matrix                  : Default (H.263)
    Muxing mode                              : Packed bitstream
    Codec ID                                 : XVID
    Codec ID/Hint                            : XviD
    Duration                                 : 1h 49mn
    Bit rate                                 : 1 599 Kbps
    Width                                    : 720 pixels
    Height                                   : 384 pixels
    Display aspect ratio                     : 1.875
    Frame rate                               : 23.976 fps
    Color space                              : YUV
    Chroma subsampling                       : 4:2:0
    Bit depth                                : 8 bits
    Scan type                                : Progressive
    Compression mode                         : Lossy
    Bits/(Pixel*Frame)                       : 0.241
    Stream size                              : 1.22 GiB (78%)
    Writing library                          : XviD 64

    Audio
    ID                                       : 1
    Format                                   : AC-3
    Format/Info                              : Audio Coding 3
    Mode extension                           : CM (complete main)
    Codec ID                                 : 2000
    Duration                                 : 1h 49mn
    Bit rate mode                            : Constant
    Bit rate                                 : 448 Kbps
    Channel(s)                               : 6 channels
    Channel positions                        : Front: L C R, Side: L R, LFE
    Sampling rate                            : 48.0 KHz
    Bit depth                                : 16 bits
    Compression mode                         : Lossy
    Stream size                              : 349 MiB (22%)
    Alignment                                : Split accross interleaves
    Interleave, duration                     : 42 ms (1.00 video frame)
    Interleave, preload duration             : 500 ms


    Скриншоты:



    piratbit.pw



  • Скачать Зал Джимми через торрент http://i68.fastpic.ru/big/2014/1202/e7/f833f510202d89d318d7f7db8b14dae7.jpg Скачать фильм Зал Джимми через торрент бесплантно в хорошем качестве Описание: В 1921-м году Джимми Гральтон решает построить танцевальный зал, куда молодые люди могли бы приходить общаться, спорить, учиться, ... 5 10 1
    Торрент: Зарегистрирован [2014-12-02 01:54] · скачан: 23 раз
    Статус: T временная
    Размер: 1.57 GB
    Как cкачать? Как скачать Зал Джимми через торрент | UTorrent

    28-11-2019 20:33  

    Отключить всю рекламу на сайте


      Дорогой пользователь! Огромная просьба, поблагодарите релизера, оцените раздачу и оставьте свои комментарий, если Вы скачали Зал Джимми через торрент бесплатно! Внесите свою лепту в развитие PiratBit!
      Комментировать посты могут только пользователи прошедшие не сложную регистрацию
      Показать сообщения:    

      Зал Джимми через торрент
      Скачать бесплатно Зал Джимми
      Зал Джимми скачать торрент
      Зал Джимми смотреть онлайн
      Cкачать фильм Зал Джимми бесплатно
      Зал Джимми скачать торрент в хорошем качестве
      Зал Джимми смотреть онлайн бесплатно в хорошем качестве


      Вы не можете начинать темы
      Вы не можете отвечать на сообщения
      Вы не можете редактировать свои сообщения
      Вы не можете удалять свои сообщения
      Вы не можете голосовать в опросах
      Вы не можете прикреплять файлы к сообщениям
      Вы можете скачивать файлы