1 сезон

3 сезон

iTunes

1

iTunes

DUB Netflix

iTunes

13

1 сезон

RePack

30

Deluxe

pack

Легкие деньги

ВАЖНО

ИГРА 18+

pack

RePack

MK11

RePack

jed

RePack

fifa19

RePack

RDR2

RePack

NEED FOR SPEED™ PAYBACK

4 сезон

9 сезон

Бесстыжие 9 сезон

Все сериалы

все сериалы на PB.wtf

RePack

FAR CRY 5

Anonymous, добрый вечер, мы не успеваем до 1 числа собрать деньги на оплату серверов, помогите нам пожалуйста в это трудное время. В качестве благодарности мы отключим Вам всю рекламу на сайте (укажите свой ник в строку Ваше имя)!

×
  
Magnet ссылка

Достань меня, если сможешь / Reach Me (Джон Херцфелд) [2014, Драма, WEB-DLRip] VO (PashaUp) piratbit.pw

Достань меня, если сможешь через торрент piratbit.pw

Размер: 1.45 GB | Добавлен: 6 лет 6 мес. назад | Торрент скачан:209 раз
Скачать  

01-12-2014 20:47 Достань меня, если сможешь Скачать торрент  

Достань меня если сможешь / Reach MeГод выпуска: 2014
Страна: США Seraphim Films Inc., Windy Hill Pictures

Жанр: Драма
Продолжительность: 01:32:13
Перевод: Любительский одноголосый
Любительское (одноголосое) [PashaUp] - перевод на русский язык [Janetta]

Режиссер: Джон Херцфелд
Продюссер: Ребекка Чейни, Кассиан Элвис, Джон Херцфелд
Сценарий: Джон Херцфелд

Бюджет: $5 000 000
Премьера в мире: 21 ноября 2014 В ролях: Лорен Кохэн, Том Беренджер, Сильвестр Сталлоне, Дэнни Айелл, Дэнни Трехо, Кира Седжвик, Томас Джейн, Кевин Коннолли, Том Сайзмор, Нелли, Омари Хардвик, Дэвид О’Хара, Келси Грэммер, Терри Крюс

Описание: Книга по самосовершенствованию, написанная неким Тедди Рэймондом, которого никто никогда не видел, приобретает бешеную популярность. Экземпляры книги попадают в руки журналиста, его босса, бывшей заключенной, звезды хип-хопа, начинающей актрисы и копа, работающего под прикрытием, заставляя по-новому взглянуть на свою жизнь.

Качество: WEB-DLRip
Формат: AVI
Видео кодек: XviD
Аудио кодек: AC3
Видео: Xvid 720x304, 23.976fps, 1797kbps
Аудио: Dolby AC3, 48000Hz, 6ch, 448kbps
Релиз от: karta78

Скриншоты:
скриншот  скриншот  скриншот  скриншот  скриншот  




General
Complete name : E:\01 02 sicret5\Reach.Me.2014.WEB-DLRip.CINEMANIA.avi
Format : AVI
Format/Info : Audio Video Interleave
File size : 1.45 GiB
Duration : 1h 32mn
Overall bit rate : 2 247 Kbps
Writing application : VirtualDubMod 1.5.10.2 (build 2542/release)
Writing library : VirtualDubMod build 2542/release

Video
ID : 0
Format : MPEG-4 Visual
Codec ID : XVID
Codec ID/Hint : XviD
Duration : 1h 32mn
Source duration : 35mn 19s
Bit rate : 1 797 Kbps
Width : 720 pixels
Height : 304 pixels
Display aspect ratio : 2.35:1
Frame rate : 23.976 fps
Color space : YUV
Chroma subsampling : 4:2:0
Compression mode : Lossy
Bits/(Pixel*Frame) : 0.342
Stream size : 454 MiB (31%)

Audio
ID : 1
Format : AC-3
Format/Info : Audio Coding 3
Codec ID : 2000
Duration : 1h 32mn
Source duration : 35mn 19s
Bit rate mode : Constant
Bit rate : 448 Kbps
Channel(s) : 6 channels
Sampling rate : 48.0 KHz
Compression mode : Lossy
Stream size : 113 MiB (8%)
Alignment : Aligned on interleaves
Interleave, duration : 42 ms (1.00 video frame)
Interleave, preload duration : 500 ms

piratbit.pw



Скачать Достань меня, если сможешь через торрент https://pic1.kartinco.top/images/81/wzpjs.jpg Скачать фильм Достань меня, если сможешь через торрент бесплантно в хорошем качестве Описание: Книга по самосовершенствованию, написанная неким Тедди Рэймондом, которого никто никогда не видел, приобретает бешеную ... 10 10 6
Торрент: Зарегистрирован [2014-12-01 20:47] · скачан: 209 раз
Статус: T временная
Размер: 1.45 GB
Как cкачать? Как скачать Достань меня, если сможешь через торрент | UTorrent

% Раздел Тема Автор DL S | L
Фильмы с авторской озвучкой [ 4.59 GB ] Достань меня если сможешь / Reach Me [2014 BDRip 1080p HEVC AVO+DVO+VO] Мичман37 Скачать
1 | 0
Фильмы с авторской озвучкой [ 5 GB ] Достань меня если сможешь / Reach Me [2014 BDRip 720p] AVO potroks Скачать
1 | 0
R.G. Resident & PiratVoice - Фильмы, Видео [ 7.73 GB ] Достань меня если сможешь / Reach Me [2014 BDRip 1080p Авторский А.Дольский] R.G.Resident schultz Скачать
1 | 0
R.G. Resident & PiratVoice - Фильмы, Видео [ 1.46 GB ] Достань меня если сможешь / Reach Me [2014 BDRip-AVC Авторский А.Дольский] R.G.Resident schultz Скачать
1 | 0
T Фильмы (Blu-ray, BD-Remux, HDDVD) [ 18.93 GB ] Достань меня если сможешь / Reach Me [2014 BDRemux Любительский ] Ворон Скачать
1 | 0
T Фильмы 2014 [DVDrip, WEB-DLRip, HDrip] [ 1.41 GB ] Достань меня если сможешь / Reach Me [2014 HDRip Любительский ] _KaisiK_ Скачать
1 | 0
T Фильмы 2014 [DVDrip, WEB-DLRip, HDrip] [ 1.45 GB ] Достань меня если сможешь / Reach Me [2014 WEB-DLRip DVO Ворон Скачать
1 | 0

28-11-2019 20:33  

Отключить всю рекламу на сайте

    Дорогой пользователь! Огромная просьба, поблагодарите релизера, оцените раздачу и оставьте свои комментарий, если Вы скачали Достань меня, если сможешь через торрент бесплатно! Внесите свою лепту в развитие PiratBit!
    Комментировать посты могут только пользователи прошедшие не сложную регистрацию
    Показать сообщения:    

    Достань меня, если сможешь через торрент
    Скачать бесплатно Достань меня, если сможешь
    Достань меня, если сможешь скачать торрент
    Достань меня, если сможешь смотреть онлайн
    Cкачать фильм Достань меня, если сможешь бесплатно
    Достань меня, если сможешь скачать торрент в хорошем качестве
    Достань меня, если сможешь смотреть онлайн бесплатно в хорошем качестве


    Вы не можете начинать темы
    Вы не можете отвечать на сообщения
    Вы не можете редактировать свои сообщения
    Вы не можете удалять свои сообщения
    Вы не можете голосовать в опросах
    Вы не можете прикреплять файлы к сообщениям
    Вы можете скачивать файлы