1 сезон

1 сезон

iTunes

1

КиноПоиск HD

Кинопоиск HD

iTunes

13

1 сезон

RePack

30

Ultimate

ВАЖНО

ИГРА 18+

pack

RePack

MK11
pack

Легкие деньги

RePack

jed

RePack

fifa19

RePack

RDR2

RePack

NEED FOR SPEED™ PAYBACK

4 сезон

9 сезон

Бесстыжие 9 сезон

Все сериалы

все сериалы на PB.wtf

RePack

FAR CRY 5
  
Magnet ссылка

Планета обезьян: Революция / Dawn of the Planet of the Apes (Мэтт Ривз) [2014, фантастика, боевик, драма, HDRip-AVC] [AVO] (Ю. Живов) piratbit.pw

Планета обезьян: Революция через торрент piratbit.pw

Размер: 2.18 GB | Добавлен: 6 лет 4 мес. назад | Торрент скачан:0 раз
Скачать  

01-12-2014 18:10 Планета обезьян: Революция Скачать торрент  

Планета обезьян: Революция / Dawn of the Planet of the Apes

Год выпуска фильма: 2014
Страна: США
Жанр: фантастика, боевик, триллер, драма
Продолжительность: 02:10:42
Перевод: Авторский (одноголосный) [Юрий Живов]
Субтитры: Русские, английские

Режиссер: Мэтт Ривз

В ролях: Гари Олдман, Кери Рассел, Джуди Грир, Энди Серкис, Анджела Кереч, Тоби Кеббелл, Джейсон Кларк, Коди Смит-МакФи, Кейр О’Доннелл, Кирк Асеведо


Численность генетически модифицированных обезьян, возглавляемых Цезарем, продолжает увеличиваться, но обезьянам угрожают люди, которым удалось выжить во время ужасной эпидемии десятилетней давности. Поначалу между соперниками устанавливается хрупкий мир, но он оказывается недолговечным. Обезьяны и люди находятся на грани войны, в ходе которой станет понятно, кто из них в будущем станет безраздельно править планетой.



Качество: HDRip-AVC
Формат видео: MKV
Видео кодек: AVC
Аудио кодек: AC-3
Видео: 1024x554 (16:9), 23.976 fps, AVC, 1 950 Kbps
Аудио: AC3, 448 Kbps, 48.0 KHz, 6 ch

Автор рипа: VIP101
General
Complete name : Planeta.Obeznyan.Revoluci.2014.HDRip-AVC.VIP101.mkv
Format : Matroska
File size : 2.18 GiB
Duration : 2h 10mn
Overall bit rate : 2 399 Kbps
Movie name : Релиз от MediaClub (konstantin49)
Encoded date : UTC 2014-12-01 14:48:16
Writing application : mkvmerge v7.3.0 ('Nouages') 64bit built on Oct 22 2014 18:53:34
Writing library : libebml v1.3.0 + libmatroska v1.4.1

Video
ID : 1
Format : AVC
Format/Info : Advanced Video Codec
Format profile : High@L4.1
Format settings, CABAC : Yes
Format settings, ReFrames : 10 frames
Muxing mode : Container profile=Unknown@4.1
Codec ID : V_MPEG4/ISO/AVC
Duration : 2h 10mn
Bit rate : 1 950 Kbps
Width : 1 024 pixels
Height : 554 pixels
Display aspect ratio : 16:9
Frame rate : 23.976 fps
Color space : YUV
Chroma subsampling : 4:2:0
Bit depth : 8 bits
Scan type : Progressive
Bits/(Pixel*Frame) : 0.143
Stream size : 1.73 GiB (79%)
Writing library : x264 core 119 r2106 07efeb4
Encoding settings : cabac=1 / ref=10 / deblock=1:-1:-2 / analyse=0x3:0x133 / me=umh / subme=9 / psy=1 / psy_rd=1.00:0.10 / mixed_ref=0 / me_range=32 / chroma_me=1 / trellis=1 / 8x8dct=1 / cqm=0 / deadzone=21,11 / fast_pskip=0 / chroma_qp_offset=-3 / threads=12 / sliced_threads=0 / nr=0 / decimate=1 / interlaced=0 / bluray_compat=0 / constrained_intra=0 / bframes=3 / b_pyramid=2 / b_adapt=2 / b_bias=0 / direct=3 / weightb=1 / open_gop=0 / weightp=2 / keyint=240 / keyint_min=23 / scenecut=40 / intra_refresh=0 / rc_lookahead=50 / rc=2pass / mbtree=1 / bitrate=1950 / ratetol=1.0 / qcomp=0.60 / qpmin=0 / qpmax=69 / qpstep=4 / cplxblur=20.0 / qblur=0.5 / ip_ratio=1.40 / aq=1:0.90

Audio
ID : 2
Format : AC-3
Format/Info : Audio Coding 3
Mode extension : CM (complete main)
Codec ID : A_AC3
Duration : 2h 10mn
Bit rate mode : Constant
Bit rate : 448 Kbps
Channel(s) : 6 channels
Channel positions : Front: L C R, Side: L R, LFE
Sampling rate : 48.0 KHz
Bit depth : 16 bits
Stream size : 418 MiB (19%)
Title : VIP101
Language : Russian

Text #1
ID : 3
Format : UTF-8
Codec ID : S_TEXT/UTF8
Codec ID/Info : UTF-8 Plain Text
Title : полные

Text #2
ID : 4
Format : UTF-8
Codec ID : S_TEXT/UTF8
Codec ID/Info : UTF-8 Plain Text
Title : английские

Menu
00:00:00.000 : en:Chapter 01
00:03:21.159 : en:Chapter 02
00:07:34.912 : en:Chapter 03
00:12:36.547 : en:Chapter 04
00:16:23.565 : en:Chapter 05
00:18:47.042 : en:Chapter 06
00:21:52.477 : en:Chapter 07
00:25:26.691 : en:Chapter 08
00:29:45.867 : en:Chapter 09
00:31:50.617 : en:Chapter 10
00:36:43.743 : en:Chapter 11
00:39:07.553 : en:Chapter 12
00:40:57.163 : en:Chapter 13
00:44:12.232 : en:Chapter 14
00:48:11.722 : en:Chapter 15
00:50:31.528 : en:Chapter 16
00:53:48.016 : en:Chapter 17
00:57:25.316 : en:Chapter 18
01:01:18.466 : en:Chapter 19
01:02:35.376 : en:Chapter 20
01:04:24.068 : en:Chapter 21
01:06:21.727 : en:Chapter 22
01:09:31.333 : en:Chapter 23
01:13:56.974 : en:Chapter 24
01:17:17.924 : en:Chapter 25
01:20:53.390 : en:Chapter 26
01:23:28.753 : en:Chapter 27
01:26:08.997 : en:Chapter 28
01:28:19.252 : en:Chapter 29
01:33:24.390 : en:Chapter 30
01:35:53.122 : en:Chapter 31
01:38:38.621 : en:Chapter 32
01:40:42.536 : en:Chapter 33
01:44:07.574 : en:Chapter 34
01:46:05.567 : en:Chapter 35
01:47:54.468 : en:Chapter 36
01:52:13.977 : en:Chapter 37
01:56:27.480 : en:Chapter 38
02:00:31.015 : en:Chapter 39
02:01:35.579 : en:Chapter 40[/code]

Цитата:

За перевод Ю.Живова большое спасибо пользователям форума HDTracker
_MyxAmoP_; Gross1978; Denis1980; kondratzx; Role; GaryH; ultrajeka; KpucTo161; Shumway; Диммон; vadamk; Brown15; Chistobaev[и Е-180:foxlight; Vladimir; Alex70; luka69; carnivale; chontvari; Skoped; Nadoelo; пуля; User; SJC; furria62; vavana; dir

piratbit.pw



Скачать Планета обезьян: Революция через торрент http://savepic.biz/img/2014-10/29/9gwtf2z2kbemqctlp05tw5ldi.png Скачать фильм Планета обезьян: Революция через торрент бесплантно в хорошем качестве В ролях: Гари Олдман, Кери Рассел, Джуди Грир, Энди Серкис, Анджела Кереч, Тоби Кеббелл, Джейсон Кларк, Коди Смит-МакФи, Кейр О’Доннелл, ... 9.1 10 10
Торрент: Зарегистрирован [2014-12-01 18:10] · скачан: 0 раз
Статус: √ проверено
Размер: 2.18 GB
Как cкачать? Как скачать Планета обезьян: Революция через торрент | UTorrent

% Раздел Тема Автор DL S | L
Ultra HD (UHD: 2K, 4K, 8K) — видео сверхвысокой чёткости [ 47.26 GB ] Планета обезьян: Революция / Dawn of the Planet of the Apes [2014 UHD BDRemux 2160p] 2xAVO+DUB [] bober100 Скачать
1 | 0
# Фильмы 2014 [DVDrip, WEB-DLRip, HDrip] [ 4.37 GB ] Планета обезьян: Революция / Dawn of the Planet of the Apes [2014 BDRip-AVC ] Anonymous Скачать
1 | 0
Фильмы 2014 [DVDrip, WEB-DLRip, HDrip] [ 2.19 GB ] Планета обезьян: Революция / Dawn of the Planet of the Apes [2014 BDRip ] coc900 Скачать
1 | 0
3D Фильмы [ 18.01 GB ] Планета обезьян: Революция / Dawn of the Planet of the Apes [2014 BDRip 1080p / 3D-Video / DUB Горизонтальная анаморфная стереопара Ворон Скачать
1 | 0
Фильмы [HD 720p, 1080p] (Хороший звук DUB, MVO) [ 11.58 GB ] Планета обезьян: Революция / Dawn of the Planet of the Apes [2014 BDRip 1080p Dub ] Seedtank Скачать
1 | 0
Фильмы с авторской озвучкой [ 2.19 GB ] Планета обезьян: Революция / Dawn of the Planet of the Apes [2014 HDRip Авторский одноголосый "Д. Есарев"] coc900 Скачать
1 | 0
Фильмы 2014 [DVDrip, WEB-DLRip, HDrip] [ 1.46 GB ] Планета обезьян: Революция / Dawn of the Planet of the Apes [2014 BDRip-AVC] Dub + Sub sokol_ok Скачать
2 | 0

28-11-2019 20:33  

Отключить всю рекламу на сайте

    Дорогой пользователь! Огромная просьба, поблагодарите релизера, оцените раздачу и оставьте свои комментарий, если Вы скачали Планета обезьян: Революция через торрент бесплатно! Внесите свою лепту в развитие PiratBit!
    Комментировать посты могут только пользователи прошедшие не сложную регистрацию
    Показать сообщения:    

    Планета обезьян: Революция через торрент
    Скачать бесплатно Планета обезьян: Революция
    Планета обезьян: Революция скачать торрент
    Планета обезьян: Революция смотреть онлайн
    Cкачать фильм Планета обезьян: Революция бесплатно
    Планета обезьян: Революция скачать торрент в хорошем качестве
    Планета обезьян: Революция смотреть онлайн бесплатно в хорошем качестве


    Вы не можете начинать темы
    Вы не можете отвечать на сообщения
    Вы не можете редактировать свои сообщения
    Вы не можете удалять свои сообщения
    Вы не можете голосовать в опросах
    Вы не можете прикреплять файлы к сообщениям
    Вы можете скачивать файлы