Ссылка на приватное зеркало нашего сайта всего за 1$. Внимание количество ограничено!!!

2 сезон

iTunes

1 сезон

1

iTunes

iTunes

iTunes

1 сезон

RePack

30

ИГРА 18+

pack

ВАЖНО

!!Акция!!

Alien_RageХит недели

RePack

MK11
pack

Забери бонус

RePack

jed

!!Акция!!

Alien_Rage

RePack

fifa19

RePack

Assassins Creed: Odyssey

RePack

NEED FOR SPEED™ PAYBACK

4 сезон

9 сезон

Бесстыжие 9 сезон

Все сериалы

все сериалы на PB.wtf

RePack

FAR CRY 5
  

Класс коррекции (Иван И. Твердовский) [2014 г., драма, WEB-DLRip] piratbit.pw

Класс коррекции через торрент piratbit.pw

Размер: 1.43 GB | Добавлен: 5 лет 10 мес. назад | Торрент скачан:376 раз
Скачать  

01-12-2014 17:52 Класс коррекции Скачать торрент  

Класс коррекции
Год выпуска: 2014
Страна: Россия / Новые люди
Жанр: драма
Продолжительность: 01:28:35

Режиссер: Иван И. Твердовский

В ролях: Мария Поезжаева, Никита Кукушкин, Филипп Авдеев, Ольга Лапшина, Наталья Павленкова, Юлия Серина, Артем Маркарьян, Мария Урядова, Наталья Домерецкая, Ирина Вилкова

Описание: После многолетнего домашнего обучения, девочка-колясочница Лена Чехова переводится в среднюю общеобразовательную школу, в класс коррекционного обучения, объединивший в себе детей с различными отклонениями. Там она не только встречает свою первую любовь, но и впервые в своей жизни сталкивается с жестокостью окружающего мира.

Качество: WEB-DLRip
Формат: AVI
Видео кодек: XviD
Аудио кодек: AC3
Видео: MPEG4, XviD, 720x400 (16:9), 25.000 fps, 1 923 Kbps (0.267 bit/pixel)
Аудио: AC-3, 48.0 KHz, 6 ch, 384 Kbps, CBR

скриншот   скриншот   скриншот   скриншот   скриншот  

Общее
Полное имя : G:\кино\Класс коррекции.2014.WEB-DLRip.avi
Формат : AVI
Формат/Информация : Audio Video Interleave
Размер файла : 1,43 Гбайт
Продолжительность : 1 ч. 28 м.
Общий поток : 2316 Кбит/сек
Программа кодирования : VirtualDubMod 1.5.10.3 | www.virtualdub-fr.org || (build 2550/release)
Библиотека кодирования : VirtualDubMod build 2550/release

Видео
Идентификатор : 0
Формат : MPEG-4 Visual
Профиль формата : Advanced Simple@L5
Параметр BVOP формата : 2
Параметр QPel формата : Нет
Параметр GMC формата : Без точки перехода
Параметр матрицы формата : Default (H.263)
Идентификатор кодека : XVID
Идентификатор кодека/Подсказка : XviD
Продолжительность : 1 ч. 28 м.
Битрейт : 1923 Кбит/сек
Ширина : 720 пикселей
Высота : 400 пикселей
Соотношение сторон : 16:9
Частота кадров : 25,000 кадров/сек
Цветовое пространство : YUV
Субдискретизация насыщенности : 4:2:0
Битовая глубина : 8 бит
Тип развёртки : Прогрессивная
Метод сжатия : С потерями
Бит/(Пиксели*Кадры) : 0.267
Размер потока : 1,19 Гбайт (83%)
Библиотека кодирования : XviD 1.2.1 (UTC 2008-12-04)

Аудио
Идентификатор : 1
Формат : AC-3
Формат/Информация : Audio Coding 3
Расширение режима : CM (complete main)
Параметр Endianness формата : Big
Идентификатор кодека : 2000
Продолжительность : 1 ч. 28 м.
Вид битрейта : Постоянный
Битрейт : 384 Кбит/сек
Каналы : 6 каналов
Расположение каналов : Front: L C R, Side: L R, LFE
Частота : 48,0 КГц
Битовая глубина : 16 бит
Метод сжатия : С потерями
Размер потока : 243 Мбайт (17%)
Выравнивание : Разделение по промежуткам
Продолжительность промежутка : 40 мс. (1,00 видеокадр)
Время предзагрузки промежутка : 500 мс.

piratbit.pw



Скачать Класс коррекции через торрент http://pic.kartinco.top/images/8/gl2sn.jpg Скачать фильм Класс коррекции через торрент бесплантно в хорошем качестве Описание: После многолетнего домашнего обучения, девочка-колясочница Лена Чехова переводится в среднюю общеобразовательную школу, в класс ... 9.3 10 10
Торрент: Зарегистрирован [2014-12-01 17:52] · скачан: 376 раз
Статус: √ проверено
Размер: 1.43 GB
Как cкачать? Как скачать Класс коррекции через торрент | qTorrent

% Раздел Тема Автор DL S | L
Наши фильмы (DVD фильмы) [ 4.1 GB ] Класс коррекции [2014 DVD5] R5 voovaz Скачать
2 | 0
Наши новые фильмы 2014 [ 1.37 GB ] Класс коррекции [2014 Россия DVDRip ] _KaisiK_ Скачать
2 | 0

28-11-2019 20:33  

Отключить всю рекламу на сайте

    Дорогой пользователь! Огромная просьба, поблагодарите релизера, оцените раздачу и оставьте свои комментарий, если Вы скачали Класс коррекции через торрент бесплатно! Внесите свою лепту в развитие PiratBit!
    Комментировать посты могут только пользователи прошедшие не сложную регистрацию
    Показать сообщения:    

    Класс коррекции через торрент
    Скачать бесплатно Класс коррекции
    Класс коррекции скачать торрент
    Класс коррекции смотреть онлайн
    Cкачать фильм Класс коррекции бесплатно
    Класс коррекции скачать торрент в хорошем качестве
    Класс коррекции смотреть онлайн бесплатно в хорошем качестве


    Вы не можете начинать темы
    Вы не можете отвечать на сообщения
    Вы не можете редактировать свои сообщения
    Вы не можете удалять свои сообщения
    Вы не можете голосовать в опросах
    Вы не можете прикреплять файлы к сообщениям
    Вы можете скачивать файлы