1 сезон

3 сезон

iTunes

1

iTunes

DUB Netflix

iTunes

13

1 сезон

RePack

30

Deluxe

pack

Легкие деньги

ВАЖНО

ИГРА 18+

pack

RePack

MK11

RePack

jed

RePack

fifa19

RePack

RDR2

RePack

NEED FOR SPEED™ PAYBACK

4 сезон

9 сезон

Бесстыжие 9 сезон

Все сериалы

все сериалы на PB.wtf

RePack

FAR CRY 5

Anonymous, добрый вечер, мы не успеваем до 1 числа собрать деньги на оплату серверов, помогите нам пожалуйста в это трудное время. В качестве благодарности мы отключим Вам всю рекламу на сайте (укажите свой ник в строку Ваше имя)!

×
  
Magnet ссылка

Свой ребёнок / Obvious Child (Gillian Robespierre) [2014, США, мелодрама, комедия, HDRip, Любительский (одноголосый)] piratbit.pw

Свой ребёнок через торрент piratbit.pw

Размер: 1.3 GB | Добавлен: 6 лет 6 мес. назад | Торрент скачан:75 раз
Скачать  

01-12-2014 01:56 Свой ребёнок Скачать торрент  

Свой ребёнок / Obvious Child

Год выпуска: 2014
Страна: США
Жанр: мелодрама, комедия
Продолжительность: 01:24:22
Перевод: Любительский (одноголосый) [Pashaup]
Субтитры: Отсутствует
Режиссер: Gillian Robespierre
В ролях:


Дженни Слейт (Donna Stern), Джейк Лэси (Max), Габи Хоффманн (Nellie), Гейб Лидман (Joey), Дэвид Кросс (Sam), Ричард Кайнд (Jacob Stern), Полли Дрэйпер (Nancy Stern), Пол Бриганти (Ryan), Синди Чунг (Dr. Bernard), Стивен Сингер (Gene), Рамзес Александр (Bar Patron), Brenda Birkeland (Patient)

Описание:
Стенд-ап комик Донна одновременно лишается бойфренда, работы и случайно беременеет от неизвестного ей мужчины...

Рейтинг:

MPAA: R - Лицам до 17 лет обязательно присутствие взрослого
Качество: HDRip
Формат: AVI
Видео кодек:XviD
Аудио кодек:AC3
Видео: XviD, 720x304 (2.35:1), 1745 kbps, 23,976 fps, 0,333 bpp
Аудио: AC3 / 5.1 / 48 kHz / 448 kbps / 16 bit

General
Complete name : D:\Users\_KaisiK_\uTorrent\КИНО\Obvious.Child.2014.HDRip.CINEMANIA.avi
Format : AVI
Format/Info : Audio Video Interleave
File size : 1.30 GiB
Duration : 1h 24mn
Overall bit rate : 2 203 Kbps
Writing application : VirtualDubMod 1.5.10.2 (build 2542/release)
Writing library : VirtualDubMod build 2542/release

Video
ID : 0
Format : MPEG-4 Visual
Format profile : Advanced Simple@L5
Format settings, BVOP : 2
Format settings, QPel : No
Format settings, GMC : No warppoints
Format settings, Matrix : Default (H.263)
Muxing mode : Packed bitstream
Codec ID : XVID
Codec ID/Hint : XviD
Duration : 1h 24mn
Bit rate : 1 745 Kbps
Width : 720 pixels
Height : 304 pixels
Display aspect ratio : 2.35:1
Frame rate : 23.976 fps
Color space : YUV
Chroma subsampling : 4:2:0
Bit depth : 8 bits
Scan type : Progressive
Compression mode : Lossy
Bits/(Pixel*Frame) : 0.333
Stream size : 1.03 GiB (79%)
Writing library : XviD 64

Audio
ID : 1
Format : AC-3
Format/Info : Audio Coding 3
Mode extension : CM (complete main)
Codec ID : 2000
Duration : 1h 24mn
Bit rate mode : Constant
Bit rate : 448 Kbps
Channel(s) : 6 channels
Channel positions : Front: L C R, Side: L R, LFE
Sampling rate : 48.0 KHz
Bit depth : 16 bits
Compression mode : Lossy
Stream size : 270 MiB (20%)
Alignment : Split accross interleaves
Interleave, duration : 42 ms (1.00 video frame)
Interleave, preload duration : 500 ms

[/code]
piratbit.pw



Скачать Свой ребёнок через торрент http://i67.fastpic.ru/big/2014/1201/f8/16617286a1617db4757da09faa6711f8.jpg Скачать фильм Свой ребёнок через торрент бесплантно в хорошем качестве Описание: Стенд-ап комик Донна одновременно лишается бойфренда, работы и случайно беременеет от неизвестного ей мужчины...Рейтинг: MPAA: R ... 7.5 10 2
Торрент: Зарегистрирован [2014-12-01 01:56] · скачан: 75 раз
Статус: ∑ поглощено
Размер: 1.3 GB
Как cкачать? Как скачать Свой ребёнок через торрент | UTorrent

% Раздел Тема Автор DL S | L
T Фильмы 2014 [DVDrip, WEB-DLRip, HDrip] [ 706 MB ] Свой ребёнок / Obvious Child [2014 HDRip многоголосый закадровый "Официальный"] coc900 Скачать
1 | 0
T Фильмы [HD 720p, 1080p] (Хороший звук DUB, MVO) [ 4.26 GB ] Свой ребенок / Obvious Child [2014 BDRip 720p |MVO Чистый звук] Ворон Скачать
1 | 0
T Фильмы 2014 [DVDrip, WEB-DLRip, HDrip] [ 1.35 GB ] Свой ребенок / Obvious Child [2014 HDRip] MVO Ворон Скачать
1 | 0


Последний раз редактировалось: _KaisiK_ (2014-12-23 12:18), всего редактировалось 1 раз

28-11-2019 20:33  

Отключить всю рекламу на сайте

01-12-2014 08:36 Свой ребёнок Скачать торрент  

Стенд-ап комик Донна одновременно лишается бойфренда, работы и случайно беременеет от неизвестного ей мужчины...ЖЕСТЬ ТО КАКАЯ....piratbit.pw



    Дорогой пользователь! Огромная просьба, поблагодарите релизера, оцените раздачу и оставьте свои комментарий, если Вы скачали Свой ребёнок через торрент бесплатно! Внесите свою лепту в развитие PiratBit!
    Комментировать посты могут только пользователи прошедшие не сложную регистрацию
    Показать сообщения:    

    Свой ребёнок через торрент
    Скачать бесплатно Свой ребёнок
    Свой ребёнок скачать торрент
    Свой ребёнок смотреть онлайн
    Cкачать фильм Свой ребёнок бесплатно
    Свой ребёнок скачать торрент в хорошем качестве
    Свой ребёнок смотреть онлайн бесплатно в хорошем качестве


    Вы не можете начинать темы
    Вы не можете отвечать на сообщения
    Вы не можете редактировать свои сообщения
    Вы не можете удалять свои сообщения
    Вы не можете голосовать в опросах
    Вы не можете прикреплять файлы к сообщениям
    Вы можете скачивать файлы