1 сезон

3 сезон

iTunes

1

iTunes

DUB Netflix

iTunes

13

1 сезон

RePack

30

Deluxe

pack

Легкие деньги

ВАЖНО

ИГРА 18+

pack

RePack

MK11

RePack

jed

RePack

fifa19

RePack

RDR2

RePack

NEED FOR SPEED™ PAYBACK

4 сезон

9 сезон

Бесстыжие 9 сезон

Все сериалы

все сериалы на PB.wtf

RePack

FAR CRY 5

Anonymous, доброй ночи, мы не успеваем до 1 числа собрать деньги на оплату серверов, помогите нам пожалуйста в это трудное время. В качестве благодарности мы отключим Вам всю рекламу на сайте (укажите свой ник в строку Ваше имя)!

×
  
Magnet ссылка

Осечка / Misfire (Р. Эллис Фрэзиер) [2014 г., боевик, криминал, HDRip, Любительский одноголосый "Васька Куролесов"] piratbit.pw

Осечка через торрент piratbit.pw

Размер: 1.44 GB | Добавлен: 6 лет 6 мес. назад | Торрент скачан:302 раза
Скачать  

29-11-2014 18:24 Осечка Скачать торрент  

Осечка / Misfire
Год выпуска: 2014
Страна: США / Badhouse Studios Mexico
Жанр: боевик, криминал
Продолжительность: 01:28:53
Перевод: Любительский одноголосый (Васька Куролесов)

Режиссер: Р. Эллис Фрэзиер

В ролях: Гэри Дэниелс, Ваннесса Васкес, Майкл Греко, Луис Гатика, Джеффри Росс, Дэвид Фернандез, Фабиан Лопес, Джастин Несбитт, Энтони Дж. Рикерт-Эпстин

Описание: Сюжет фильма рассказывает историю Коула, закалённого агента DEA, о том как он отправляется в преступный мир Тихуаны в Мексике чтобы найти там свою бывшую жену журналистку. Он считает, что жена была похищена боссом Картеля...

Качество: HDRip
Формат: AVI
Видео кодек: XviD
Аудио кодек: AC3
Видео: MPEG4, XviD, 720x304 (2.35:1), 23.976 fps, 2 112 Kbps (0.403 bit/pixel)
Аудио: AC-3, 48.0 KHz, 2 ch, 192 Kbps, CBR

скриншот   скриншот   скриншот   скриншот   скриншот   скриншот   скриншот   скриншот  

Общее
Полное имя : G:\кино\Осечка.2014.HDRip.avi
Формат : AVI
Формат/Информация : Audio Video Interleave
Размер файла : 1,44 Гбайт
Продолжительность : 1 ч. 28 м.
Общий поток : 2314 Кбит/сек
Программа кодирования : VirtualDubMod 1.5.10.3 | www.virtualdub-fr.org || (build 2550/release)
Библиотека кодирования : VirtualDubMod build 2550/release

Видео
Идентификатор : 0
Формат : MPEG-4 Visual
Профиль формата : Advanced Simple@L5
Параметр BVOP формата : 2
Параметр QPel формата : Нет
Параметр GMC формата : Без точки перехода
Параметр матрицы формата : Default (H.263)
Идентификатор кодека : XVID
Идентификатор кодека/Подсказка : XviD
Продолжительность : 1 ч. 28 м.
Битрейт : 2112 Кбит/сек
Ширина : 720 пикселей
Высота : 304 пикселя
Соотношение сторон : 2,35:1
Частота кадров : 23,976 кадра/сек
Цветовое пространство : YUV
Субдискретизация насыщенности : 4:2:0
Битовая глубина : 8 бит
Тип развёртки : Прогрессивная
Метод сжатия : С потерями
Бит/(Пиксели*Кадры) : 0.403
Размер потока : 1,31 Гбайт (91%)
Библиотека кодирования : XviD 1.2.1 (UTC 2008-12-04)

Аудио
Идентификатор : 1
Формат : AC-3
Формат/Информация : Audio Coding 3
Расширение режима : CM (complete main)
Параметр Endianness формата : Big
Идентификатор кодека : 2000
Продолжительность : 1 ч. 28 м.
Вид битрейта : Постоянный
Битрейт : 192 Кбит/сек
Каналы : 2 канала
Расположение каналов : Front: L R
Частота : 48,0 КГц
Битовая глубина : 16 бит
Метод сжатия : С потерями
Размер потока : 122 Мбайт (8%)
Выравнивание : Разделение по промежуткам
Продолжительность промежутка : 42 мс. (1,00 видеокадр)
Время предзагрузки промежутка : 500 мс.

piratbit.pw



Скачать Осечка через торрент https://pic1.kartinco.top/images/81/pyncs.jpg Скачать фильм Осечка через торрент бесплантно в хорошем качестве Описание: Сюжет фильма рассказывает историю Коула, закалённого агента DEA, о том как он отправляется в преступный мир Тихуаны в Мексике ... 9.5 10 11
Торрент: Зарегистрирован [2014-11-29 18:24] · скачан: 302 раз
Статус: √ проверено
Размер: 1.44 GB
Как cкачать? Как скачать Осечка через торрент | UTorrent

% Раздел Тема Автор DL S | L
Фильмы (Blu-ray, BD-Remux, HDDVD) [ 18.03 GB ] Осечка / Misfire [2014 BDRemux 1080p от NovaLan] VO Ворон Скачать
1 | 0

28-11-2019 20:33  

Отключить всю рекламу на сайте


    Дорогой пользователь! Огромная просьба, поблагодарите релизера, оцените раздачу и оставьте свои комментарий, если Вы скачали Осечка через торрент бесплатно! Внесите свою лепту в развитие PiratBit!
    Комментировать посты могут только пользователи прошедшие не сложную регистрацию
    Показать сообщения:    

    Осечка через торрент
    Скачать бесплатно Осечка
    Осечка скачать торрент
    Осечка смотреть онлайн
    Cкачать фильм Осечка бесплатно
    Осечка скачать торрент в хорошем качестве
    Осечка смотреть онлайн бесплатно в хорошем качестве


    Вы не можете начинать темы
    Вы не можете отвечать на сообщения
    Вы не можете редактировать свои сообщения
    Вы не можете удалять свои сообщения
    Вы не можете голосовать в опросах
    Вы не можете прикреплять файлы к сообщениям
    Вы можете скачивать файлы