1 сезон

3 сезон

iTunes

1

iTunes

DUB Netflix

iTunes

13

1 сезон

RePack

30

Deluxe

pack

Легкие деньги

ВАЖНО

ИГРА 18+

pack

RePack

MK11

RePack

jed

RePack

fifa19

RePack

RDR2

RePack

NEED FOR SPEED™ PAYBACK

4 сезон

9 сезон

Бесстыжие 9 сезон

Все сериалы

все сериалы на PB.wtf

RePack

FAR CRY 5

Anonymous, добрый вечер, мы не успеваем до 1 числа собрать деньги на оплату серверов, помогите нам пожалуйста в это трудное время. В качестве благодарности мы отключим Вам всю рекламу на сайте (укажите свой ник в строку Ваше имя)!

×
  
Magnet ссылка

Пляж будущего / Praia do Futuro (Карим Айнуз / Karim Ainouz) [2014, Бразилия, Германия, драма, DVDRip, Любительский (одноголосый)] piratbit.pw

Пляж будущего через торрент piratbit.pw

Размер: 1.39 GB | Добавлен: 6 лет 6 мес. назад | Торрент скачан:81 раз
Скачать  

27-11-2014 11:47 Пляж будущего Скачать торрент  

Пляж будущего / Praia do Futuro

Год выпуска: 2014
Страна: Бразилия, Германия
Жанр: драма
Продолжительность: 01:46:37
Перевод: Любительский (одноголосый)[Kirill]
Субтитры: Отсутствует
Режиссер: Карим Айнуз / Karim Ainouz
В ролях:


Вагнер Моура (Donato), Клеменс Шик (Konrad), Хесвита Барбоса (Ayrton), Фред Лима (Heiko), Томас Аквино (Jefferson), Maj. Barreto (Diver 1), Marcus Davis Andrade Braga (Diver 2), Savio Ygor Ramos (Ayrton (10 years old)), Демик Лопес (Captain Motta), Jean Philippe Kodjo Adabra (Grocery Clerk), Сабина Тимотео (Heiko's Wife), Yannik Burwiek (Heiko's Son)

Описание:
Когда двое мужчин оказались в ловушке опасных течений, Донато удается спасти Конрада, немецкого туриста, но жизнь его лучшего друга забирает море. И пока вдоль побережья ведутся поиски тела, у Конрада и его спасителя появляется возможность узнать друг друга получше...

Рейтинг:
Бюджет:$4 000 000
Качество: DVDRip
Формат: AVI
Видео кодек:DivX 4
Аудио кодек:AC3
Видео: DivX 4, 720x400 (16:9), 1277 kbps, 24 fps, 0,185 bpp
Аудио №1: AC3 / 2.0 / 48 kHz / 192 kbps / 16 bit
Аудио №2: AC3 / 5.1 / 48 kHz / 384 kbps / 16 bit - (оригинал португальский)


General
Complete name : D:\Users\_KaisiK_\uTorrent\КИНО\Praia.Do.Futuro.2014.DVDRip.2014.avi
Format : AVI
Format/Info : Audio Video Interleave
File size : 1.39 GiB
Duration : 1h 46mn
Overall bit rate : 1 868 Kbps
Writing application : VirtualDubMod 1.5.10.2 (build 2540/release)
Writing library : VirtualDubMod build 2540/release

Video
ID : 0
Format : MPEG-4 Visual
Format profile : Advanced Simple@L4
Format settings, BVOP : 2
Format settings, QPel : No
Format settings, GMC : No warppoints
Format settings, Matrix : Default (H.263)
Codec ID : DIVX
Codec ID/Info : Project Mayo
Codec ID/Hint : DivX 4
Duration : 1h 46mn
Bit rate : 1 278 Kbps
Width : 720 pixels
Height : 400 pixels
Display aspect ratio : 16:9
Frame rate : 24.000 fps
Color space : YUV
Chroma subsampling : 4:2:0
Bit depth : 8 bits
Scan type : Progressive
Compression mode : Lossy
Bits/(Pixel*Frame) : 0.185
Stream size : 974 MiB (68%)
Writing library : XviD 64

Audio #1
ID : 1
Format : AC-3
Format/Info : Audio Coding 3
Mode extension : CM (complete main)
Codec ID : 2000
Duration : 1h 46mn
Bit rate mode : Constant
Bit rate : 192 Kbps
Channel(s) : 2 channels
Channel positions : Front: L R
Sampling rate : 48.0 KHz
Bit depth : 16 bits
Compression mode : Lossy
Stream size : 146 MiB (10%)
Alignment : Split accross interleaves
Interleave, duration : 42 ms (1.00 video frame)
Interleave, preload duration : 500 ms

Audio #2
ID : 2
Format : AC-3
Format/Info : Audio Coding 3
Mode extension : CM (complete main)
Codec ID : 2000
Duration : 1h 46mn
Bit rate mode : Constant
Bit rate : 384 Kbps
Channel(s) : 6 channels
Channel positions : Front: L C R, Side: L R, LFE
Sampling rate : 48.0 KHz
Bit depth : 16 bits
Compression mode : Lossy
Stream size : 293 MiB (21%)
Alignment : Split accross interleaves
Interleave, duration : 42 ms (1.00 video frame)
Interleave, preload duration : 500 ms

[/code]
piratbit.pw



Скачать Пляж будущего через торрент http://i65.fastpic.ru/big/2014/1127/f9/b64f6e475c80a1f8413cde44e2c75ff9.jpg Скачать фильм Пляж будущего через торрент бесплантно в хорошем качестве Описание: Когда двое мужчин оказались в ловушке опасных течений, Донато удается спасти Конрада, немецкого туриста, но жизнь его лучшего ... 10 10 6
Торрент: Зарегистрирован [2014-11-27 11:47] · скачан: 81 раз
Статус: T временная
Размер: 1.39 GB
Как cкачать? Как скачать Пляж будущего через торрент | UTorrent



Последний раз редактировалось: _KaisiK_ (2014-12-23 11:51), всего редактировалось 1 раз

28-11-2019 20:33  

Отключить всю рекламу на сайте

28-11-2014 09:43 Пляж будущего Скачать торрент  

Узнать получше - нетрадиционный секс?piratbit.pw



28-11-2014 13:05 Пляж будущего Скачать торрент  

это типа горбатой горы?)piratbit.pw



30-11-2014 00:02 Пляж будущего Скачать торрент  

Блин о таком нужно как то по точнее сообщать, 15 минут какой то муры, а потом вооу вооу вооу успагойся.piratbit.pw



    Дорогой пользователь! Огромная просьба, поблагодарите релизера, оцените раздачу и оставьте свои комментарий, если Вы скачали Пляж будущего через торрент бесплатно! Внесите свою лепту в развитие PiratBit!
    Комментировать посты могут только пользователи прошедшие не сложную регистрацию
    Показать сообщения:    

    Пляж будущего через торрент
    Скачать бесплатно Пляж будущего
    Пляж будущего скачать торрент
    Пляж будущего смотреть онлайн
    Cкачать фильм Пляж будущего бесплатно
    Пляж будущего скачать торрент в хорошем качестве
    Пляж будущего смотреть онлайн бесплатно в хорошем качестве


    Вы не можете начинать темы
    Вы не можете отвечать на сообщения
    Вы не можете редактировать свои сообщения
    Вы не можете удалять свои сообщения
    Вы не можете голосовать в опросах
    Вы не можете прикреплять файлы к сообщениям
    Вы можете скачивать файлы