1 сезон

1 сезон

iTunes

1

КиноПоиск HD

Кинопоиск HD

iTunes

13

1 сезон

RePack

30

Ultimate

ВАЖНО

ИГРА 18+

pack

RePack

MK11
pack

Легкие деньги

RePack

jed

RePack

fifa19

RePack

RDR2

RePack

NEED FOR SPEED™ PAYBACK

4 сезон

9 сезон

Бесстыжие 9 сезон

Все сериалы

все сериалы на PB.wtf

RePack

FAR CRY 5
  
Magnet ссылка

Флирт / Flirt (Хэл Хартли) [1995, драма, мелодрама, BDRip 1080p] AVO piratbit.pw

Флирт через торрент piratbit.pw

Размер: 10.51 GB | Добавлен: 6 лет 4 мес. назад | Торрент скачан:4 раза
Скачать  

25-11-2014 05:28 Флирт Скачать торрент  

Флирт / Flirt

Год выпуска: 1995
Страна: США, Германия, Япония
Жанр: драма, мелодрама
Продолжительность: 01:23:53
Перевод: авторский
Субтитры: английские хардсабы на неанглийскую речь

Режиссёр: Хэл Хартли

В ролях: Пол Остин, Роберт Джон Бёрк, Мартин Донован, Эрика Гимпел, Майкл Империоли, Холт МакКэллани, Лианна Пай, Хэролд Перрино, Паркер Поузи, Билл Сейдж, Патриция Скэнлон, Пол Шульц, Карен Сайлас, Ханна Салливан, Хосе Суньига, Борис Альинович, Доминик Бендер, Сьюзи Бик, Дуайт Юэлл, Петер Фиц, Себастьян Кох, Гено Лехнер, Элина Ловенсон, Ларс Рудольф, Мария Шрадер, Томоко Фудзита, Мансаку Икеучи, Ютака Мацусигэ, Масатоси Нагасэ

Описание: Фильм разделён на три части, и в каждой из них, практически на один и тот же сценарий, разыгрываются довольно разные истории. Хартли стремится сказать, что среда определяет смысл слов, как бы эмоционально эти слова не были окрашены. Так что, в Нью-Йорке, Берлине и Токио одни и те же слова приобретают свои краски; города преломляют диалог; и сквозь неоновые огни Токио и Нью-Йорка перед нами вдруг открывается калейдоскоп вербальных взаимоотношений. Даже если всё, что происходит, просто флирт.



Качество: BDRip 1080p Сравнение с исходником
Формат: MKV
Видео кодек: H.264
Аудио кодек: AC3
Видео: 1920x1080, 16.6 Mbps, 23.976 кадра/с, 0.334 bpp
Аудио 1: русский, AC3, 192 kbps, 2 ch, 48 kHz [авторский, Андрей Дольский]
Аудио 2: английский, DTS, 768 kbps, 2 ch, 48 kHz [оригинал]

Имеются неименованные главы/чаптеры.

Автор рипа msltel
Общее
Уникальный идентификатор : 206863668663941822155002958902575428367 (0x9BA07E4EB695F3D5AC993345053AF30F)
Полное имя : D:VideoFlirt.1995.BDRip.1080p.mkv
Формат : Matroska
Версия формата : Version 4 / Version 2
Размер файла : 10,5 Гбайт
Продолжительность : 1 ч. 23 м.
Общий поток : 17,9 Мбит/сек
Дата кодирования : UTC 2014-11-25 03:17:26
Программа кодирования : mkvmerge v7.3.0 ('Nouages') 64bit built on Oct 22 2014 18:53:34
Библиотека кодирования : libebml v1.3.0 + libmatroska v1.4.1
_STATISTICS_WRITING_APP : mkvmerge v7.3.0 ('Nouages') 64bit built on Oct 22 2014 18:53:34
_STATISTICS_WRITING_DATE_UTC : 2014-11-25 03:17:26
_STATISTICS_TAGS : BPS DURATION NUMBER_OF_FRAMES NUMBER_OF_BYTES
DURATION : 01:23:53.014000000
NUMBER_OF_FRAMES : 471845
NUMBER_OF_BYTES : 483169344

Видео
Идентификатор : 1
Формат : AVC
Формат/Информация : Advanced Video Codec
Профиль формата : High@L4.1
Параметр CABAC формата : Да
Параметр ReFrames формата : 4 кадра
Идентификатор кодека : V_MPEG4/ISO/AVC
Продолжительность : 1 ч. 23 м.
Битрейт : 16,6 Мбит/сек
Ширина : 1920 пикселей
Высота : 1080 пикселей
Соотношение сторон : 16:9
Режим частоты кадров : Постоянный
Частота кадров : 23,976 кадра/сек
Цветовое пространство : YUV
Субдискретизация насыщенности : 4:2:0
Битовая глубина : 8 бит
Тип развёртки : Прогрессивная
Бит/(Пиксели*Кадры) : 0.334
Размер потока : 9,74 Гбайт (93%)
Заголовок : BDRip -- STarankov
Библиотека кодирования : x264 core 142 r2431 ac76440
Настройки программы : cabac=1 / ref=4 / deblock=1:-1:-1 / analyse=0x3:0x113 / me=umh / subme=10 / psy=1 / psy_rd=1.00:0.15 / mixed_ref=1 / me_range=32 / chroma_me=1 / trellis=2 / 8x8dct=1 / cqm=0 / deadzone=21,11 / fast_pskip=1 / chroma_qp_offset=-3 / threads=6 / lookahead_threads=1 / sliced_threads=0 / nr=0 / decimate=1 / interlaced=0 / bluray_compat=0 / constrained_intra=0 / bframes=8 / b_pyramid=2 / b_adapt=2 / b_bias=0 / direct=3 / weightb=1 / open_gop=0 / weightp=2 / keyint=230 / keyint_min=23 / scenecut=40 / intra_refresh=0 / rc_lookahead=40 / rc=crf / mbtree=0 / crf=19.0 / qcomp=0.60 / qpmin=0 / qpmax=69 / qpstep=4 / vbv_maxrate=50000 / vbv_bufsize=62500 / crf_max=0.0 / nal_hrd=none / filler=0 / ip_ratio=1.40 / pb_ratio=1.30 / aq=1:1.00
Язык : English
Default : Да
Forced : Нет
DURATION : 01:23:52.736000000
NUMBER_OF_FRAMES : 120665
NUMBER_OF_BYTES : 10676583239
_STATISTICS_WRITING_APP : mkvmerge v7.3.0 ('Nouages') 64bit built on Oct 22 2014 18:53:34
_STATISTICS_WRITING_DATE_UTC : 2014-11-25 03:17:26
_STATISTICS_TAGS : BPS DURATION NUMBER_OF_FRAMES NUMBER_OF_BYTES

Аудио #1
Идентификатор : 2
Формат : AC-3
Формат/Информация : Audio Coding 3
Расширение режима : CM (complete main)
Параметр Endianness формата : Big
Идентификатор кодека : A_AC3
Продолжительность : 1 ч. 23 м.
Вид битрейта : Постоянный
Битрейт : 192 Кбит/сек
Каналы : 2 канала
Расположение каналов : Front: L R
Частота : 48,0 КГц
Битовая глубина : 16 бит
Метод сжатия : С потерями
Размер потока : 115 Мбайт (1%)
Заголовок : AVO (Андрей Дольский)
Язык : Russian
Default : Да
Forced : Нет

Аудио #2
Идентификатор : 3
Формат : DTS
Формат/Информация : Digital Theater Systems
Режим : 16
Параметр Endianness формата : Big
Идентификатор кодека : A_DTS
Продолжительность : 1 ч. 23 м.
Вид битрейта : Постоянный
Битрейт : 768 Кбит/сек
Каналы : 2 канала
Расположение каналов : Front: L R
Частота : 48,0 КГц
Битовая глубина : 16 бит
Метод сжатия : С потерями
Размер потока : 461 Мбайт (4%)
Заголовок : Original
Язык : English
Default : Нет
Forced : Нет

Меню
00:00:00.000 : :Chapter 01
00:06:52.202 : :Chapter 02
00:13:28.807 : :Chapter 03
00:18:29.900 : :Chapter 04
00:22:06.282 : :Chapter 05
00:27:08.752 : :Chapter 06
00:31:54.411 : :Chapter 07
00:42:19.161 : :Chapter 08
00:47:19.002 : :Chapter 09
00:54:05.575 : :Chapter 10
01:04:00.002 : :Chapter 11
01:16:22.119 : :Chapter 12
01:23:51.735 : :Chapter 13
piratbit.pw



Скачать Флирт через торрент http://i68.fastpic.ru/big/2014/1124/e1/385c0fc41f979bddcff1862382c90ae1.jpg Скачать фильм Флирт через торрент бесплантно в хорошем качестве Описание: Фильм разделён на три части, и в каждой из них, практически на один и тот же сценарий, разыгрываются довольно разные истории. ... 5 10 1
Торрент: Зарегистрирован [2014-11-25 05:28] · скачан: 4 раз
Статус: √ проверено
Размер: 10.51 GB
Как cкачать? Как скачать Флирт через торрент | UTorrent

% Раздел Тема Автор DL S | L
Фильмы с авторской озвучкой [ 4.79 GB ] Флирт / Flirt [1995 BDRip 720p] AVO msltel Скачать
1 | 0

28-11-2019 20:33  

Отключить всю рекламу на сайте

    Дорогой пользователь! Огромная просьба, поблагодарите релизера, оцените раздачу и оставьте свои комментарий, если Вы скачали Флирт через торрент бесплатно! Внесите свою лепту в развитие PiratBit!
    Комментировать посты могут только пользователи прошедшие не сложную регистрацию
    Показать сообщения:    

    Флирт через торрент
    Скачать бесплатно Флирт
    Флирт скачать торрент
    Флирт смотреть онлайн
    Cкачать фильм Флирт бесплатно
    Флирт скачать торрент в хорошем качестве
    Флирт смотреть онлайн бесплатно в хорошем качестве


    Вы не можете начинать темы
    Вы не можете отвечать на сообщения
    Вы не можете редактировать свои сообщения
    Вы не можете удалять свои сообщения
    Вы не можете голосовать в опросах
    Вы не можете прикреплять файлы к сообщениям
    Вы можете скачивать файлы