1 сезон

3 сезон

iTunes

1

iTunes

DUB Netflix

iTunes

13

1 сезон

RePack

30

Deluxe

pack

Легкие деньги

ВАЖНО

ИГРА 18+

pack

RePack

MK11

RePack

jed

RePack

fifa19

RePack

RDR2

RePack

NEED FOR SPEED™ PAYBACK

4 сезон

9 сезон

Бесстыжие 9 сезон

Все сериалы

все сериалы на PB.wtf

RePack

FAR CRY 5

Anonymous, добрый вечер, мы не успеваем до 1 числа собрать деньги на оплату серверов, помогите нам пожалуйста в это трудное время. В качестве благодарности мы отключим Вам всю рекламу на сайте (укажите свой ник в строку Ваше имя)!

×
  
Magnet ссылка

Попал под раздачу / Catch Hell (Райан Филипп / Ryan Phillippe) [2014, США, триллер, драма, WEB-DLRip, Любительский (одноголосый) [den904] piratbit.pw

Попал под раздачу через торрент piratbit.pw

Размер: 1.42 GB | Добавлен: 6 лет 6 мес. назад | Торрент скачан:124 раза
Скачать  

24-11-2014 02:10 Попал под раздачу Скачать торрент  

Попал под раздачу / Catch Hell


  • Год выпуска: 2014
  • Страна: США
  • Жанр: триллер, драма

  • Продолжительность: 01:37:10
  • Перевод: Любительский (одноголосый) [den904] - по переводу [Антонио]

  • Режиссер: Райан Филипп / Ryan Phillippe
  • В ролях:

    Райан Филипп (Reagan Pearce), Тиг Нотаро (Careen), Джеймс ДюМонт (Tony Cunningham), Джойфул Дрейк (Diane), Стивен Луис Граш (Junior), Хаким Коллендер (Hotel Security Guard), Рамона Тайлер (The Stewardess), Расс Руссо (Tim Remmit), Йен Барфорд (Mike), Хайди Брук Майерс (Rhonda), Форрест Форте (David), Скиппер Ландри (Bartender)

  • Описание:
    Голливудский актер Ригон Пирс похищен бандитами по пути на работу в Шривпорте, штат Луизиана. Похитители пытают и шантажируют его, взламывают его аккаунт в Твиттере и угрожают выложить в сеть компрометирующие материалы...
  • Рейтинг:



  • Качество: WEB-DLRip
  • Формат: :AVI
  • Видео кодек: XviD
  • Аудио кодек: AC3
  • Видео: 720x384 (1.875), 1696 kbps, 23,976 fps, 0,256 bpp
  • Аудио: 5.1 / 48 kHz / 384 kbps / 16 bit
  • Релиз от: GEKADOL

    Код:

    General
    Complete name                            : I:\Catch.Hell.2014.WEB-DLRip.CINEMANIA.avi
    Format                                   : AVI
    Format/Info                              : Audio Video Interleave
    File size                                : 1.42 GiB
    Duration                                 : 1h 37mn
    Overall bit rate                         : 2 090 Kbps
    Writing application                      : VirtualDubMod 1.5.10.2 (build 2542/release)
    Writing library                          : VirtualDubMod build 2542/release

    Video
    ID                                       : 0
    Format                                   : MPEG-4 Visual
    Format profile                           : Advanced Simple@L5
    Format settings, BVOP                    : 2
    Format settings, QPel                    : No
    Format settings, GMC                     : No warppoints
    Format settings, Matrix                  : Default (H.263)
    Muxing mode                              : Packed bitstream
    Codec ID                                 : XVID
    Codec ID/Hint                            : XviD
    Duration                                 : 1h 37mn
    Bit rate                                 : 1 697 Kbps
    Width                                    : 720 pixels
    Height                                   : 384 pixels
    Display aspect ratio                     : 1.875
    Frame rate                               : 23.976 fps
    Color space                              : YUV
    Chroma subsampling                       : 4:2:0
    Bit depth                                : 8 bits
    Scan type                                : Progressive
    Compression mode                         : Lossy
    Bits/(Pixel*Frame)                       : 0.256
    Stream size                              : 1.15 GiB (81%)
    Writing library                          : XviD 64

    Audio
    ID                                       : 1
    Format                                   : AC-3
    Format/Info                              : Audio Coding 3
    Mode extension                           : CM (complete main)
    Codec ID                                 : 2000
    Duration                                 : 1h 37mn
    Bit rate mode                            : Constant
    Bit rate                                 : 384 Kbps
    Channel(s)                               : 6 channels
    Channel positions                        : Front: L C R, Side: L R, LFE
    Sampling rate                            : 48.0 KHz
    Bit depth                                : 16 bits
    Compression mode                         : Lossy
    Stream size                              : 267 MiB (18%)
    Alignment                                : Split accross interleaves
    Interleave, duration                     : 42 ms (1.00 video frame)
    Interleave, preload duration             : 500 ms


    Скриншоты:



    piratbit.pw



  • Скачать Попал под раздачу через торрент http://i65.fastpic.ru/big/2014/1124/84/6cd8494d012eca787ff43070a85f5a84.jpg Скачать фильм Попал под раздачу через торрент бесплантно в хорошем качестве Описание: Голливудский актер Ригон Пирс похищен бандитами по пути на работу в Шривпорте, штат Луизиана. Похитители пытают и шантажируют ... 7.8 10 6
    Торрент: Зарегистрирован [2014-11-24 02:10] · скачан: 124 раз
    Статус: T временная
    Размер: 1.42 GB
    Как cкачать? Как скачать Попал под раздачу через торрент | UTorrent

    % Раздел Тема Автор DL S | L
    T Фильмы [HD 720p, 1080p] (Звук Cam, VO, DVO) [ 8.92 GB ] Попал под раздачу / Catch Hell [2014 BDRip 1080p] VO Ворон Скачать
    1 | 0
    T Фильмы 2014 (Звук TS, Cam, VO, DVO) [ 745 MB ] Попал под раздачу / Catch Hell [2014 WEB-DLRip Любительский [den904] Ворон Скачать
    1 | 0

    28-11-2019 20:33  

    Отключить всю рекламу на сайте

      Дорогой пользователь! Огромная просьба, поблагодарите релизера, оцените раздачу и оставьте свои комментарий, если Вы скачали Попал под раздачу через торрент бесплатно! Внесите свою лепту в развитие PiratBit!
      Комментировать посты могут только пользователи прошедшие не сложную регистрацию
      Показать сообщения:    

      Попал под раздачу через торрент
      Скачать бесплатно Попал под раздачу
      Попал под раздачу скачать торрент
      Попал под раздачу смотреть онлайн
      Cкачать фильм Попал под раздачу бесплатно
      Попал под раздачу скачать торрент в хорошем качестве
      Попал под раздачу смотреть онлайн бесплатно в хорошем качестве


      Вы не можете начинать темы
      Вы не можете отвечать на сообщения
      Вы не можете редактировать свои сообщения
      Вы не можете удалять свои сообщения
      Вы не можете голосовать в опросах
      Вы не можете прикреплять файлы к сообщениям
      Вы можете скачивать файлы