1 сезон

1 сезон

iTunes

1

КиноПоиск HD

Кинопоиск HD

iTunes

13

1 сезон

RePack

30

Ultimate

ВАЖНО

ИГРА 18+

pack

RePack

MK11
pack

Легкие деньги

RePack

jed

RePack

fifa19

RePack

RDR2

RePack

NEED FOR SPEED™ PAYBACK

4 сезон

9 сезон

Бесстыжие 9 сезон

Все сериалы

все сериалы на PB.wtf

RePack

FAR CRY 5
  
Magnet ссылка

Люди Икс: Дни минувшего будущего (Брайан Сингер) [2014 г., фантастика, боевик, триллер, приключения, HDRip, Авторский одноголосый "В. Белов"] piratbit.pw

Люди Икс: Дни минувшего будущего через торрент piratbit.pw

Размер: 2.19 GB | Добавлен: 6 лет 5 мес. назад | Торрент скачан:44 раза
Скачать  

19-11-2014 18:01 Люди Икс: Дни минувшего будущего Скачать торрент  

Люди Икс: Дни минувшего будущего / X-Men: Days of Future Past
Год выпуска: 2014
Страна: США , Великобритания / Twentieth Century Fox Film Corporation, Marvel Entertainment, TSG Entertainment
Жанр: фантастика, боевик, триллер, приключения
Продолжительность: 02:11:35
Перевод: Авторский одноголосый (В. Белов)
Режиссер: Брайан Сингер

  • В ролях: Хью Джекман, Джеймс МакЭвой, Майкл Фассбендер, Дженнифер Лоуренс, Холли Берри, Николас Холт, Анна Пэкуин, Эллен Пейдж, Питер Динклэйдж, Шон Эшмор

    Описание: В недалёком будущем мутанты близки к истреблению роботами-охотниками на мутантов Стражами. Единственная надежда для мутантов выжить — предотвратить череду роковых событий, приведших к появлению Стражей. С помощью своих способностей, Китти Прайд перемещает сознание Росомахи в его молодое тело в 1973 год. В прошлом всё оказывается не так радужно: молодой Профессор Икс окончательно разочарован в своих идеях, Магнето содержится в тюрьме глубоко под землёй, а человечество не знает как реагировать на широкое появление мутантов…

    Качество: HDRip
    Формат: AVI
    Видео кодек: XviD
    Аудио кодек: AC3
    Видео: MPEG4, XviD, 720x304 (2.35:1), 23.976 fps, 1 925 Kbps (0.367 bit/pixel)
    Аудио: AC-3, 48.0 KHz, 6 ch, 448 Kbps, CBR
    скриншот   скриншот   скриншот   скриншот   скриншот   скриншот   скриншот   скриншот  

    Общее
    Полное имя : G:\кино\Люди Икс Дни минувшего будущего.2014.HDRip.avi
    Формат : AVI
    Формат/Информация : Audio Video Interleave
    Профиль формата : OpenDML
    Размер файла : 2,19 Гбайт
    Продолжительность : 2 ч. 11 м.
    Общий поток : 2385 Кбит/сек
    Программа кодирования : VirtualDubMod 1.5.10.3 | www.virtualdub-fr.org || (build 2550/release)
    Библиотека кодирования : VirtualDubMod build 2550/release

    Видео
    Идентификатор : 0
    Формат : MPEG-4 Visual
    Профиль формата : Advanced Simple@L5
    Параметр BVOP формата : 2
    Параметр QPel формата : Нет
    Параметр GMC формата : Без точки перехода
    Параметр матрицы формата : Default (H.263)
    Идентификатор кодека : XVID
    Идентификатор кодека/Подсказка : XviD
    Продолжительность : 2 ч. 11 м.
    Битрейт : 1925 Кбит/сек
    Ширина : 720 пикселей
    Высота : 304 пикселя
    Соотношение сторон : 2,35:1
    Частота кадров : 23,976 кадра/сек
    Цветовое пространство : YUV
    Субдискретизация насыщенности : 4:2:0
    Битовая глубина : 8 бит
    Тип развёртки : Прогрессивная
    Метод сжатия : С потерями
    Бит/(Пиксели*Кадры) : 0.367
    Размер потока : 1,77 Гбайт (81%)
    Библиотека кодирования : XviD 1.2.1 (UTC 2008-12-04)

    Аудио
    Идентификатор : 1
    Формат : AC-3
    Формат/Информация : Audio Coding 3
    Расширение режима : CM (complete main)
    Параметр Endianness формата : Big
    Идентификатор кодека : 2000
    Продолжительность : 2 ч. 11 м.
    Вид битрейта : Постоянный
    Битрейт : 448 Кбит/сек
    Каналы : 6 каналов
    Расположение каналов : Front: L C R, Side: L R, LFE
    Частота : 48,0 КГц
    Битовая глубина : 16 бит
    Метод сжатия : С потерями
    Размер потока : 422 Мбайт (19%)
    Выравнивание : Разделение по промежуткам
    Продолжительность промежутка : 42 мс. (1,00 видеокадр)
    Время предзагрузки промежутка : 500 мс.

    piratbit.pw



  • Скачать Люди Икс: Дни минувшего будущего через торрент https://pic.kartinco.top/images/8/5dzop.jpg Скачать фильм Люди Икс: Дни минувшего будущего через торрент бесплантно в хорошем качестве Описание: В недалёком будущем мутанты близки к истреблению роботами-охотниками на мутантов Стражами. Единственная надежда для мутантов ... 10 10 3
    Торрент: Зарегистрирован [2014-11-19 18:01] · скачан: 44 раз
    Статус: √ проверено
    Размер: 2.19 GB
    Как cкачать? Как скачать Люди Икс: Дни минувшего будущего через торрент | UTorrent

    % Раздел Тема Автор DL S | L
    Ultra HD (UHD: 2K, 4K, 8K) — видео сверхвысокой чёткости [ 56.73 GB ] Люди Икс: Дни минувшего будущего / X-Men: Days of Future Past [2014 UHD BDRemux 2160p] DUB + 2xAVO [Tеатральная версия] sheker187 Скачать
    1 | 0
    Фильмы [HD 720p, 1080p] (Хороший звук DUB, MVO) [ 6.98 GB ] Люди Икс: Дни минувшего будущего / X-Men: Days of Future Past [2014 BDRip 1080p HEVC +AVO] [Rogue Cut] Мичман37 Скачать
    1 | 0
    Ultra HD (UHD: 2K, 4K, 8K) — видео сверхвысокой чёткости [ 29.03 GB ] Люди Икс: Дни минувшего будущего / X-Men: Days of Future Past [2014 UHD WEBRip 2160p] - [] sheker187 Скачать
    1 | 0
    R.G. Resident & PiratVoice - Фильмы, Видео [ 3.46 GB ] Люди Икс: Дни минувшего будущего / X-Men: Days of Future Past [2014 HDRip-AVC () + Оригинал] от R.G. Resident Dean24 Скачать
    1 | 0
    Фильмы 2014 [DVDrip, WEB-DLRip, HDrip] [ 1.46 GB ] Люди Икс: Дни минувшего будущего [2014 HDRip ] Ворон Скачать
    2 | 0
    Фильмы 2014 [DVDrip, WEB-DLRip, HDrip] [ 1.75 GB ] Люди Икс: Дни минувшего будущего [2014 BDRip-AVC] [EXTENDED] Dub potroks Скачать
    1 | 0
    Фильмы 2014 [DVDrip, WEB-DLRip, HDrip] [ 2.91 GB ] Люди Икс: Дни минувшего будущего [2014 BDRip-AVC] [EXTENDED] Dub potroks Скачать
    2 | 0

    28-11-2019 20:33  

    Отключить всю рекламу на сайте

      Дорогой пользователь! Огромная просьба, поблагодарите релизера, оцените раздачу и оставьте свои комментарий, если Вы скачали Люди Икс: Дни минувшего будущего через торрент бесплатно! Внесите свою лепту в развитие PiratBit!
      Комментировать посты могут только пользователи прошедшие не сложную регистрацию
      Показать сообщения:    

      Люди Икс: Дни минувшего будущего через торрент
      Скачать бесплатно Люди Икс: Дни минувшего будущего
      Люди Икс: Дни минувшего будущего скачать торрент
      Люди Икс: Дни минувшего будущего смотреть онлайн
      Cкачать фильм Люди Икс: Дни минувшего будущего бесплатно
      Люди Икс: Дни минувшего будущего скачать торрент в хорошем качестве
      Люди Икс: Дни минувшего будущего смотреть онлайн бесплатно в хорошем качестве


      Вы не можете начинать темы
      Вы не можете отвечать на сообщения
      Вы не можете редактировать свои сообщения
      Вы не можете удалять свои сообщения
      Вы не можете голосовать в опросах
      Вы не можете прикреплять файлы к сообщениям
      Вы можете скачивать файлы